<?xml version="1.0" standalone="no"?>
<!DOCTYPE svg PUBLIC "-//W3C//DTD SVG 1.1//EN" "http://www.w3.org/Graphics/SVG/1.1/DTD/svg11.dtd">
<svg xmlns="http://www.w3.org/2000/svg">
<defs >
<font id="FrankRuhlLibre" horiz-adv-x="522" ><font-face
    font-family="Frank Ruhl Libre Medium"
    units-per-em="1000"
    panose-1="0 0 6 0 0 0 0 0 0 0"
    ascent="957"
    descent="-334"
    alphabetic="0" />
<glyph unicode=" " glyph-name="space" horiz-adv-x="233" />
<glyph unicode="!" glyph-name="exclam" horiz-adv-x="314" d="M92 548Q90 582 90 593Q90 625 106 648T158 671Q196 671 212 648T229 594Q229 582 225 548L183 197H135L92 548ZM123 -11T102 10T80 66Q80 100 101 122T157 145Q192 145 213 123T234 66Q233 31 213
10T157 -11Q123 -11 102 10Z" />
<glyph unicode="&quot;" glyph-name="quotedbl" horiz-adv-x="492" d="M149 427T144 433T137 451L118 574Q114 594 114 626Q114 647 125 661T161 675Q185 675 196 661T208 626Q208 589 205 574L185 451Q183 440 178 434T161 427Q149 427 144 433ZM309 427T307
451L287 574Q283 594 283 626Q283 647 294 661T331 675Q355 675 366 661T378 626Q378 594 374 574L355 451Q351 427 331 427Q309 427 307 451Z" />
<glyph unicode="#" glyph-name="numbersign" horiz-adv-x="498" d="M393 385L376 264H448V208H369L340 0H278L307 208H161L132 0H70L99 208H25V264H106L123 385H51V441H131L161 660H223L193 441H339L369 660H431L401 441H474V385H393ZM331 385H185L168 264H314L331 385Z" />
<glyph unicode="$" glyph-name="dollar" horiz-adv-x="534" d="M498 98T438 53T295 1V-97H247V0Q169 4 110 36T51 121Q51 148 68 165T112 183Q139 183 156 167T174 126Q174 106 167 96T150 78T139 67Q139 58 174 47T247 34V288L200 309Q131 340 95 384T58 491Q58
567 109 608T247 656V732H295V657Q375 655 423 627T471 550Q471 520 454 505T413 489Q388 489 371 506T353 547Q353 562 358 570T372 585T381 596Q381 606 359 615T295 626V394L338 376Q413 344 455 297T498 192Q498 98 438 53ZM159 488T181 462T247 415V624Q159
610 159 533Q159 488 181 462ZM389 53T389 148Q389 189 367 215T295 267V37Q389 53 389 148Z" />
<glyph unicode="%" glyph-name="percent" horiz-adv-x="877" d="M160 323T115 370T69 498Q69 551 90 590T147 651T229 672Q299 672 344 625T389 498Q389 417 344 370T229 323Q160 323 115 370ZM598 672H648L272 -12H222L598 672ZM268 360T279 401T291 498Q291
553 280 594T229 635Q191 635 180 594T168 498Q168 442 179 401T229 360Q268 360 279 401ZM579 -10T534 37T488 165Q488 218 509 257T566 318T648 339Q718 339 763 292T808 165Q808 84 763 37T648 -10Q579 -10 534 37ZM687 27T698 68T710 165Q710 220 699 261T648
302Q610 302 599 261T587 165Q587 109 598 68T648 27Q687 27 698 68Z" />
<glyph unicode="&amp;" glyph-name="ampersand" horiz-adv-x="731" d="M576 64T610 45T686 26V0H625Q557 0 517 11T445 48Q367 -11 249 -11Q147 -11 87 31T27 155Q27 221 64 261T170 338Q104 411 104 499Q104 578 155 625T289 672Q355 672 398 641T441 545Q441
492 409 455T296 364L489 154Q493 150 494 148Q520 180 534 214T548 279Q548 298 541 308T515 322T459 326V351H660V326Q634 326 622 322T604 310T592 281Q563 189 518 124Q576 64 610 45ZM241 639T220 613T198 537Q198 507 212 475T270 393Q322 427 342 459T362
536Q362 589 340 614T281 639Q241 639 220 613ZM140 122T183 86T295 49Q357 49 412 79L407 84L203 302Q174 280 157 253T140 186Q140 122 183 86Z" />
<glyph unicode="&apos;" glyph-name="quotesingle" horiz-adv-x="289" d="M133 427T128 433T121 451L102 574Q98 594 98 626Q98 647 109 661T145 675Q169 675 180 661T192 626Q192 589 189 574L169 451Q167 440 162 434T145 427Q133 427 128 433Z" />
<glyph unicode="(" glyph-name="parenleft" horiz-adv-x="330" d="M177 -121T129 -5T80 266Q80 421 128 537T302 657L305 632Q238 612 202 508T165 266Q165 130 202 26T305 -101L302 -124Q177 -121 129 -5Z" />
<glyph unicode=")" glyph-name="parenright" horiz-adv-x="329" d="M25 -101Q91 -79 127 25T164 266Q164 403 128 507T25 632L27 657Q152 654 200 538T249 266Q249 110 201 -5T27 -124L25 -101Z" />
<glyph unicode="*" glyph-name="asterisk" horiz-adv-x="356" d="M160 323T149 330T140 350L158 456L155 458L72 389Q67 385 60 385Q43 385 29 409Q21 423 21 436Q21 452 34 456L134 493V497L33 534Q20 540 20 553Q20 563 29 581Q43 605 60 605Q67 605 72 601L155
533L158 535L140 640Q138 653 149 660T178 667Q197 667 208 660T217 640L199 534L202 532L285 601Q290 605 297 605Q314 605 327 581Q336 568 336 554Q336 538 323 534L221 496V494L324 456Q336 452 336 437Q336 424 327 409Q313 384 297 384Q291 384 284 389L201
458L198 457L217 350Q219 337 208 330T178 323Q160 323 149 330Z" />
<glyph unicode="+" glyph-name="plus" horiz-adv-x="517" d="M223 205H29V274H223V469H293V274H488V205H293V10H223V205Z" />
<glyph unicode="," glyph-name="comma" horiz-adv-x="291" d="M87 -102Q114 -99 139 -81T164 -34Q164 -22 159 -17T142 -8Q115 -1 98 13T80 60Q80 95 101 115T153 135Q185 135 207 111T229 34Q229 -30 194 -76T91 -132L87 -102Z" />
<glyph unicode="-" glyph-name="hyphen" horiz-adv-x="384" d="M61 335H322V254H61V335Z" />
<glyph unicode="." glyph-name="period" horiz-adv-x="304" d="M122 -9T101 12T80 63Q80 93 101 114T152 135Q182 135 203 114T225 63Q225 33 204 12T152 -9Q122 -9 101 12Z" />
<glyph unicode="/" glyph-name="slash" horiz-adv-x="285" d="M200 670H283L85 -12H2L200 670Z" />
<glyph unicode="0" glyph-name="zero" horiz-adv-x="569" d="M158 -9T104 90T50 330Q50 470 104 569T284 669Q411 669 465 570T519 330Q519 190 465 91T284 -9Q158 -9 104 90ZM329 28T351 61T380 157T388 330Q388 440 381 503T351 599T284 632Q240 632 218 599T188
503T181 330Q181 220 188 157T217 61T284 28Q329 28 351 61Z" />
<glyph unicode="1" glyph-name="one" horiz-adv-x="491" d="M105 37H175Q196 37 204 47T213 81V563Q126 520 70 500V549Q108 565 160 600T240 660H328V81Q328 57 336 47T366 37H436V0H105V37Z" />
<glyph unicode="2" glyph-name="two" horiz-adv-x="570" d="M45 13Q45 80 96 144T219 272Q260 308 287 338T334 410T353 504Q353 565 326 599T252 633Q221 633 204 620T187 585Q187 573 194 561Q197 555 200 547T203 528Q203 498 185 480T137 462Q106 462 87 482T67
539Q67 607 128 639T274 672Q375 672 430 624T485 487Q485 434 465 398T411 335T309 267Q232 217 190 173T136 95H395Q424 95 439 100T463 118T482 155H515L477 0H45V13Z" />
<glyph unicode="3" glyph-name="three" horiz-adv-x="555" d="M155 -9T98 21T40 109Q40 143 59 165T109 187Q136 187 153 169T171 120Q171 104 165 90T159 69Q159 51 177 41T228 30Q289 30 320 69T352 187Q352 263 322 300T228 337Q209 337 175 334V388Q223 385
227 385Q287 385 307 425T328 510Q328 559 307 594T237 630Q213 630 192 622T170 597Q170 591 176 577Q186 559 186 543Q186 517 168 500T121 483Q92 483 74 502T55 553Q55 608 113 638T251 669Q334 669 395 633T456 514Q456 458 422 421T320 368V364Q378 357 431
317T485 184Q485 92 422 42T244 -9Q155 -9 98 21Z" />
<glyph unicode="4" glyph-name="four" horiz-adv-x="555" d="M218 37H271Q304 37 304 76V176H30V232Q184 476 327 668H419V256H520V176H419V76Q419 56 426 47T450 37H495V0H218V37ZM304 256V551H300Q230 451 185 384T104 256H304Z" />
<glyph unicode="5" glyph-name="five" horiz-adv-x="545" d="M148 -9T99 20T50 102Q50 135 69 154T116 173Q141 173 161 157T181 113Q181 97 171 79Q165 65 165 60Q165 44 185 37T233 30Q303 30 332 71T362 185Q362 267 330 309T237 352Q200 352 172 337T118 289H86L118
660H388Q411 660 420 665T435 684H468L438 570H147L122 355L124 353Q157 377 199 392T289 407Q354 407 398 379T463 305T485 206Q485 145 456 96T370 19T232 -9Q148 -9 99 20Z" />
<glyph unicode="6" glyph-name="six" horiz-adv-x="586" d="M176 -12T113 68T50 290Q50 419 102 507T243 638T444 681V644Q369 644 312 608T220 504T179 346H183Q215 387 252 407T337 427Q392 427 436 402T505 330T531 219Q531 155 505 103T426 19T297 -12Q176
-12 113 68ZM347 30T375 73T404 193Q404 271 374 313T289 356Q238 356 209 320T180 214Q180 140 212 85T299 30Q347 30 375 73Z" />
<glyph unicode="7" glyph-name="seven" horiz-adv-x="536" d="M133 -12T133 70Q133 133 171 210T274 376L326 448L413 570H150Q119 570 102 558T76 525L68 505H35L51 660H481V591Q460 566 415 498T352 398Q316 334 299 279T277 186T270 100Q270 76 269 66Q266
27 251 8T202 -12Q133 -12 133 70Z" />
<glyph unicode="8" glyph-name="eight" horiz-adv-x="555" d="M208 -10T158 7T77 61T45 152Q45 210 81 251T180 325Q123 359 96 398T69 487Q69 542 99 583T180 647T286 670Q331 670 376 656T451 611T481 533Q481 482 447 445T356 377Q428 337 464 296T500 188Q500
126 468 82T382 14T264 -10Q208 -10 158 7ZM354 420T373 455T392 526Q392 571 362 601T282 631Q238 631 209 606T179 539Q179 500 210 470T322 397Q354 420 373 455ZM326 31T357 62T389 142Q389 171 375 191T329 234T216 305Q135 254 135 167Q135 104 173 68T271
31Q326 31 357 62Z" />
<glyph unicode="9" glyph-name="nine" horiz-adv-x="586" d="M142 9Q216 9 274 46T366 152T407 311H403Q371 270 334 250T249 230Q194 230 150 255T81 327T55 438Q55 502 81 554T160 638T289 669Q410 669 473 589T536 367Q536 238 484 150T343 19T142 -24V9ZM348
301T377 337T406 443Q406 517 374 572T287 627Q239 627 211 584T182 464Q182 386 212 344T297 301Q348 301 377 337Z" />
<glyph unicode=":" glyph-name="colon" horiz-adv-x="304" d="M122 269T101 290T80 341Q80 371 101 392T152 413Q182 413 203 392T225 341Q225 311 204 290T152 269Q122 269 101 290ZM122 -9T101 12T80 63Q80 93 101 114T152 135Q182 135 203 114T225 63Q225 33
204 12T152 -9Q122 -9 101 12Z" />
<glyph unicode=";" glyph-name="semicolon" horiz-adv-x="304" d="M122 269T101 290T80 341Q80 371 101 392T152 413Q182 413 203 392T225 341Q225 311 204 290T152 269Q122 269 101 290ZM86 -102Q113 -99 138 -81T163 -34Q163 -22 158 -17T141 -8Q114 -1 97 13T79
60Q79 95 100 115T152 135Q184 135 206 111T228 34Q228 -30 193 -76T90 -132L86 -102Z" />
<glyph unicode="&lt;" glyph-name="less" horiz-adv-x="583" d="M57 199V270L526 476V400L154 235L526 69V-7L57 199Z" />
<glyph unicode="=" glyph-name="equal" horiz-adv-x="527" d="M29 372H498V302H29V372ZM29 167H498V97H29V167Z" />
<glyph unicode="&gt;" glyph-name="greater" horiz-adv-x="583" d="M57 69L429 235L57 400V476L526 270V199L57 -7V69Z" />
<glyph unicode="?" glyph-name="question" horiz-adv-x="494" d="M196 230Q196 291 212 329T260 411Q287 446 300 474T313 544Q313 590 295 618T239 646Q211 646 188 632T165 596Q165 588 168 583T178 570Q186 561 190 552T195 528Q195 501 178 486T132 470Q100
470 83 490T66 545Q66 611 122 641T251 672Q321 672 374 642T428 538Q428 503 415 477T384 432T333 386Q301 360 282 341T250 294T236 230V197H196V230ZM193 -9T172 12T150 63Q150 93 171 114T223 135Q253 135 274 115T295 64Q295 33 274 12T222 -9Q193 -9 172
12Z" />
<glyph unicode="@" glyph-name="at" horiz-adv-x="764" d="M281 -15T204 19T81 121T35 289Q35 403 89 489T234 621T429 667Q519 667 587 630T692 530T729 391Q729 333 703 279T627 190T512 156Q473 156 454 172T434 218Q434 230 437 243L449 292L446 294Q416 233
372 195T276 156Q243 156 223 177T202 237Q202 282 228 347T311 461T450 510Q474 510 497 500L500 506H589L522 249Q519 237 519 229Q519 200 553 200Q584 200 610 230T652 305T667 389Q667 461 635 512T547 590T425 617Q341 617 273 572T166 450T127 289Q127 228
152 170T237 72T392 32Q436 32 480 40T559 63L569 34Q531 10 477 -2T373 -15Q281 -15 204 19ZM358 203T395 259T454 374L488 467Q474 478 454 478Q414 478 380 435T325 335T304 244Q304 203 330 203Q358 203 395 259Z" />
<glyph unicode="A" glyph-name="A" horiz-adv-x="669" d="M593 52T607 43T658 33V0H388V33H433Q447 33 454 40T461 58Q461 66 458 75L400 243H196L140 72Q137 62 137 54Q137 33 164 33H213V0H5V33Q44 33 59 44T86 88L294 660H379L581 83Q593 52 607 43ZM389 276L298
542H295L207 276H389Z" />
<glyph unicode="B" glyph-name="B" horiz-adv-x="639" d="M44 33Q81 33 97 37T118 53T123 89V570Q123 596 118 607T97 623T44 628V660H337Q446 660 507 626T568 508Q568 446 533 409T432 357V356Q512 342 554 298T596 177Q596 81 532 41T348 0H44V33ZM301 371Q370
371 407 404T444 499Q444 558 409 589T302 621Q269 621 257 613T245 581V371H301ZM391 39T426 74T461 176Q461 250 419 291T303 332H245V104Q245 68 262 54T321 39Q391 39 426 74Z" />
<glyph unicode="C" glyph-name="C" horiz-adv-x="654" d="M216 -12T132 74T47 322Q47 491 134 581T382 672Q420 672 449 665T510 645Q533 635 543 635Q553 635 558 638T567 649L572 660H597L607 471H582Q568 538 523 585T391 632Q310 632 264 583T201 467T184
335Q184 203 232 116T386 29Q480 29 523 71T588 171L615 157Q606 121 580 83T503 16T379 -12Q216 -12 132 74Z" />
<glyph unicode="D" glyph-name="D" horiz-adv-x="744" d="M44 33Q81 33 97 37T118 53T123 89V570Q123 596 118 607T97 623T44 627V660H360Q529 658 613 581T697 339Q697 160 605 80T327 0H44V33ZM450 39T504 111T559 336Q559 621 338 621Q283 621 264 614T245
585V96Q245 62 262 51T332 39Q450 39 504 111Z" />
<glyph unicode="E" glyph-name="E" horiz-adv-x="599" d="M44 33Q81 33 97 37T118 53T123 89V570Q123 596 118 607T97 623T44 627V660H533V493H507Q495 544 481 570T440 609T361 621H283Q260 621 253 614T245 587V367H344Q379 367 396 374T421 399T436 452H461V240H436Q429
276 422 292T397 315T344 323H245V105Q245 75 252 62T284 44T366 39Q423 39 455 53T506 97T540 184H565L553 0H44V33Z" />
<glyph unicode="F" glyph-name="F" horiz-adv-x="560" d="M44 33Q81 33 97 37T118 53T123 89V570Q123 596 118 607T97 622T44 627V660H530V494H505Q492 545 478 571T436 609T357 621H283Q260 621 253 614T245 587V351H355Q391 351 408 358T434 383T449 436H473V223H449Q442
259 434 275T409 299T355 307H245V90Q245 64 251 53T276 38T339 33V0H44V33Z" />
<glyph unicode="G" glyph-name="G" horiz-adv-x="687" d="M216 -12T132 75T47 320Q47 427 86 506T199 629T374 672Q419 672 448 665T508 645Q513 643 524 639T545 635Q561 635 567 649L572 660H597L607 469H582Q569 535 523 583T394 632Q275 632 230 538T184 331Q184
251 206 183T275 72T391 29Q417 29 444 35T491 50V211Q491 234 486 246T466 263T421 269H403V300H672V269H653Q628 269 621 257T613 211V0H587Q580 30 554 30Q545 30 535 27T514 18Q483 4 452 -4T370 -12Q216 -12 132 75Z" />
<glyph unicode="H" glyph-name="H" horiz-adv-x="775" d="M44 33Q81 33 97 37T118 53T123 89V569Q123 595 118 606T97 622T44 627V660H323V627Q286 627 270 623T250 607T245 569V366H530V569Q530 595 525 606T505 622T452 627V660H731V627Q694 627 678 623T658
607T653 569V89Q653 64 658 53T679 37T731 33V0H452V33Q489 33 505 37T525 53T530 89V324H245V89Q245 64 250 53T271 37T323 33V0H44V33Z" />
<glyph unicode="I" glyph-name="I" horiz-adv-x="367" d="M44 33Q81 33 97 37T118 53T123 89V569Q123 595 118 606T97 622T44 627V660H323V627Q286 627 270 623T250 607T245 569V89Q245 64 250 53T271 37T323 33V0H44V33Z" />
<glyph unicode="J" glyph-name="J" horiz-adv-x="416" d="M15 -210T-14 -186T-43 -130Q-43 -93 -26 -75T22 -57Q44 -57 62 -73T80 -113Q80 -130 75 -141T69 -157Q69 -161 77 -164T93 -168Q146 -168 163 -130T181 -6V569Q181 595 176 606T156 622T103 627V660H382V627Q344
627 328 623T308 607T303 569V103Q303 -5 282 -72T209 -175T63 -210Q15 -210 -14 -186Z" />
<glyph unicode="K" glyph-name="K" horiz-adv-x="688" d="M561 112T584 85T630 45T683 33V0H409V33H422Q445 33 445 46Q445 57 429 84L281 323L245 285V89Q245 64 250 53T271 37T323 33V0H44V33Q81 33 97 37T118 53T123 89V569Q123 595 118 606T97 622T44 627V660H323V627Q286
627 270 623T250 607T245 569V338L462 589Q477 607 477 617Q477 627 463 627H427V660H667V627Q616 627 570 602T469 518L363 408L524 168Q561 112 584 85Z" />
<glyph unicode="L" glyph-name="L" horiz-adv-x="594" d="M44 33Q81 33 97 37T118 53T123 89V570Q123 596 118 607T97 622T44 627V660H328V627Q288 627 272 623T250 608T245 570V114Q245 78 254 63T284 44T353 40Q410 40 441 53T491 95T524 182H550L539 0H44V33Z" />
<glyph unicode="M" glyph-name="M" horiz-adv-x="869" d="M40 33H70Q100 33 108 43T117 86V570Q117 596 112 607T92 622T39 627V660H251L434 183H437L619 660H824V627Q787 626 772 622T751 607T746 570V89Q746 64 751 53T772 37T824 33V0H551V33Q588 33 604 37T624
53T629 89V570H627L412 0H381L164 570H162V86Q162 61 164 51T177 37T212 33H258V0H40V33Z" />
<glyph unicode="N" glyph-name="N" horiz-adv-x="719" d="M165 548H162V85Q162 57 173 45T212 33H258V0H40V33H70Q94 33 105 45T117 85V570Q117 596 112 607T92 622T39 627V660H232L555 167H558V579Q558 627 507 627H462V660H679V627H649Q603 627 603 579V-6H527L165
548Z" />
<glyph unicode="O" glyph-name="O" horiz-adv-x="726" d="M203 -12T125 80T47 331Q47 490 125 581T363 672Q523 672 601 581T679 331Q679 172 601 80T363 -12Q203 -12 125 80ZM451 29T496 106T542 331Q542 478 497 554T363 631Q275 631 230 555T184 331Q184 183
229 106T363 29Q451 29 496 106Z" />
<glyph unicode="P" glyph-name="P" horiz-adv-x="597" d="M44 33Q81 33 97 37T118 53T123 89V570Q123 596 118 607T97 622T44 627V660H331Q476 660 525 602T575 470Q575 388 518 325T303 262H245V89Q245 63 251 52T276 37T339 33V0H44V33ZM305 302Q370 302 407
345T445 467Q445 541 409 581T301 621Q267 621 256 613T245 586V302H305Z" />
<glyph unicode="Q" glyph-name="Q" horiz-adv-x="726" d="M540 -116T558 -111T587 -96L599 -118Q576 -140 546 -155T470 -171Q415 -171 378 -146T321 -84T299 -8Q171 10 109 99T47 331Q47 490 125 581T363 672Q523 672 601 581T679 331Q679 191 619 102T433 -7Q436
-52 457 -84T522 -116Q540 -116 558 -111ZM184 183T229 106T363 29Q451 29 496 106T542 331Q542 478 497 554T363 631Q275 631 230 555T184 331Q184 183 229 106Z" />
<glyph unicode="R" glyph-name="R" horiz-adv-x="650" d="M44 33Q81 33 97 37T118 53T123 89V570Q123 596 118 607T97 622T44 627V660H353Q461 660 516 618T571 498Q571 428 529 386T416 332V330Q479 315 505 275T542 159L545 139Q552 91 574 62T636 33V0H473Q445
22 430 92L400 230Q392 270 368 288T300 307H245V89Q245 64 250 53T271 37T323 33V0H44V33ZM305 347Q375 347 408 381T442 484Q442 554 408 587T305 621Q268 621 257 612T245 580V347H305Z" />
<glyph unicode="S" glyph-name="S" horiz-adv-x="523" d="M40 209H65Q119 29 248 29Q302 29 334 58T366 141Q366 187 338 218T252 274L230 283Q144 318 97 362T49 485Q49 538 73 580T145 647T258 672Q291 672 314 667T362 653Q381 645 392 645Q399 645 403 649T410
664H430L440 483H416Q401 556 364 594T271 632Q221 632 190 604T159 530Q159 496 178 472T224 432T292 399L321 387Q398 355 440 310T483 189Q483 104 427 46T248 -12Q207 -12 181 -6T131 10Q128 11 119 14T102 18Q92 18 85 13T75 0H54L40 209Z" />
<glyph unicode="T" glyph-name="T" horiz-adv-x="587" d="M137 33Q185 33 203 36T227 50T232 88V621H184Q135 621 110 609T72 571T45 491H20V660H567V491H542Q528 546 516 571T478 609T404 621H354V88Q354 62 361 51T386 37T450 33V0H137V33Z" />
<glyph unicode="U" glyph-name="U" horiz-adv-x="758" d="M240 -12T179 44T117 228V570Q117 596 112 607T92 622T39 627V660H318V627Q281 627 265 623T244 607T239 570V226Q239 129 275 79T382 29Q523 29 523 226V570Q523 596 518 607T498 622T445 627V660H724V627Q686
627 670 623T650 608T645 570V228Q645 103 581 46T377 -12Q240 -12 179 44Z" />
<glyph unicode="V" glyph-name="V" horiz-adv-x="666" d="M90 577Q83 598 76 608T55 622T15 627V660H277V627H233Q209 627 209 609Q209 602 212 593L366 127H371L517 580Q523 598 523 608Q523 618 517 622T498 627H450V660H657V627Q622 627 604 615T575 573L372
0H285L90 577Z" />
<glyph unicode="W" glyph-name="W" horiz-adv-x="921" d="M86 577Q78 606 64 616T15 627V660H266V627H221Q208 627 203 624T197 611Q197 605 200 593L317 137H321L448 646H527L664 136H669L778 580Q784 606 784 611Q784 619 779 623T759 627H702V660H912V627Q871
627 853 610T823 544L676 0H587L456 478H452L328 0H239L86 577Z" />
<glyph unicode="X" glyph-name="X" horiz-adv-x="655" d="M566 53T584 43T645 33V0H353V33H399Q409 33 415 37T422 50Q422 58 415 68L293 273H288L170 69Q167 60 167 54Q167 44 174 39T192 33H240V0H10V33Q51 33 69 43T108 83L267 318L109 576Q88 608 72 617T19
627V660H283V627H246Q226 627 226 615Q226 606 233 595L336 420H340L445 598Q453 611 453 617Q453 627 434 627H395V660H604V627Q567 627 547 617T504 579L363 381L545 88Q566 53 584 43Z" />
<glyph unicode="Y" glyph-name="Y" horiz-adv-x="633" d="M623 660V627Q581 627 563 618T529 578L372 269V90Q372 64 378 53T404 38T467 33V0H165V33Q209 33 228 37T252 53T257 90V259L97 577Q82 607 66 617T15 627V660H287V627H239Q218 627 218 614Q218 608 223
596L349 322H352L472 592Q477 605 477 612Q477 627 456 627H411V660H623Z" />
<glyph unicode="Z" glyph-name="Z" horiz-adv-x="585" d="M20 32L408 621H269Q206 621 172 609T121 569T94 484H68V660H557V630L163 39H332Q404 39 443 53T502 97T539 187H565L553 0H20V32Z" />
<glyph unicode="[" glyph-name="bracketleft" horiz-adv-x="294" d="M100 660H265V628H178V-97H265V-130H100V660Z" />
<glyph unicode="\" glyph-name="backslash" horiz-adv-x="299" d="M2 670H86L297 -12H212L2 670Z" />
<glyph unicode="]" glyph-name="bracketright" horiz-adv-x="294" d="M29 -97H116V628H29V660H194V-130H29V-97Z" />
<glyph unicode="^" glyph-name="asciicircum" horiz-adv-x="618" d="M272 660H348L533 286H459L310 585L161 286H88L272 660Z" />
<glyph unicode="_" glyph-name="underscore" horiz-adv-x="551" d="M40 -71H511V-118H40V-71Z" />
<glyph unicode="`" glyph-name="grave" horiz-adv-x="391" d="M109 675Q94 693 90 702T85 723Q85 741 99 754T132 767Q147 767 158 759T179 731L257 562H213L109 675Z" />
<glyph unicode="a" glyph-name="a" horiz-adv-x="512" d="M506 21Q484 8 459 -1T395 -10Q354 -10 337 3T319 57Q285 27 249 9T169 -10Q115 -10 80 16T45 90Q45 158 117 209T319 284V345Q318 387 298 408T226 429Q198 429 178 421T157 403Q157 394 169 382Q177
373 181 366T185 347Q185 322 170 308T130 293Q104 293 88 309T72 351Q72 384 96 413T167 459T277 477Q357 477 394 444T432 330V108Q432 69 440 55T468 40Q478 40 486 43T496 48L506 21ZM158 62T232 62Q273 62 319 99V245Q236 227 197 199T158 125Q158 62 232
62Z" />
<glyph unicode="b" glyph-name="b" horiz-adv-x="578" d="M439 480T486 422T533 248Q533 117 473 53T303 -11Q258 -11 225 -2T146 26H145L123 0H85V584Q85 607 82 617T71 630T43 634H25V668L172 690H200V427H201Q228 450 267 465T352 480Q439 480 486 422ZM410
29T410 221Q410 317 380 366T290 415Q267 415 248 407T200 376V61Q236 29 287 29Q410 29 410 221Z" />
<glyph unicode="c" glyph-name="c" horiz-adv-x="494" d="M160 -10T104 49T47 230Q47 355 106 417T276 480Q338 480 379 462T439 416T458 354Q458 324 443 307T400 290Q373 290 359 306T344 347Q344 362 348 372T354 384Q361 396 361 404Q361 420 343 430T291
440Q232 440 201 400T170 255Q170 152 203 102T305 52Q362 52 390 78T439 144L464 129Q441 61 396 26T266 -10Q160 -10 104 49Z" />
<glyph unicode="d" glyph-name="d" horiz-adv-x="573" d="M557 33V0H388L382 43Q350 20 309 5T225 -11Q139 -11 92 51T45 225Q45 353 106 416T281 480Q310 480 330 476T377 464H378V587Q378 614 373 624T349 634H319V666L464 690H493V83Q493 53 505 43T546 33H557ZM168
54T288 54Q311 54 328 62T378 93V414Q342 440 293 440Q231 440 200 394T168 248Q168 54 288 54Z" />
<glyph unicode="e" glyph-name="e" horiz-adv-x="517" d="M470 229H170Q173 143 203 98T304 53Q353 53 385 75T436 143L467 125Q442 64 397 27T262 -10Q47 -10 47 233Q47 356 101 418T261 480Q371 480 420 416T470 242V229ZM348 269Q348 358 332 399T265 440Q216
440 194 399T169 269H348Z" />
<glyph unicode="f" glyph-name="f" horiz-adv-x="323" d="M34 33Q64 33 77 37T94 51T98 83V430H34V470H98V531Q98 611 144 657T268 704Q329 704 362 677T395 610Q395 586 382 572T343 558Q318 558 305 571T291 607Q291 622 297 634T304 651Q304 658 295 664T271
671Q215 671 215 581V470H328V430H215V83Q215 60 220 50T241 37T295 33V0H34V33Z" />
<glyph unicode="g" glyph-name="g" horiz-adv-x="565" d="M506 480T528 463T550 413Q550 390 539 376T506 362Q486 362 476 372T465 396Q465 406 467 412T469 423Q469 427 465 431T449 435Q426 435 410 413Q439 374 439 321Q439 241 382 204T240 166Q205 166 173
172Q150 154 150 140Q150 128 166 119T215 109H306Q393 109 440 72T487 -36Q487 -123 418 -167T243 -212Q149 -212 90 -178T30 -79Q30 -44 50 -22T120 16Q89 27 72 47T54 92Q54 143 132 184Q39 222 39 319Q39 401 100 439T244 478Q286 478 323 468T388 435Q420
480 473 480Q506 480 528 463ZM285 206T307 237T329 326Q329 381 312 409T246 437Q196 437 178 408T160 321Q160 264 177 235T242 206Q285 206 307 237ZM393 -32T359 -13T254 7H189Q135 -14 135 -69Q135 -115 172 -144T265 -173Q318 -173 355 -147T393 -74Q393
-32 359 -13Z" />
<glyph unicode="h" glyph-name="h" horiz-adv-x="606" d="M510 62T514 52T533 37T576 33V0H337V33Q363 33 375 37T391 50T395 78V318Q395 365 373 390T307 415Q244 415 205 362V78Q205 59 208 50T223 37T261 33V0H25V33Q55 33 68 37T85 51T89 83V587Q89 614 83
623T61 633H31V667L176 690H205V411H206Q244 444 288 462T376 480Q439 480 474 442T510 333V83Q510 62 514 52Z" />
<glyph unicode="i" glyph-name="i" horiz-adv-x="305" d="M119 542T101 560T83 607Q83 635 101 654T148 673Q178 673 196 654T214 607Q214 579 195 561T148 542Q119 542 101 560ZM29 33Q59 33 72 37T89 52T93 83V372Q93 400 88 409T65 418H35V452L182 475H210V83Q210
61 214 51T231 37T274 33V0H29V33Z" />
<glyph unicode="j" glyph-name="j" horiz-adv-x="234" d="M82 540T64 558T46 605Q46 633 64 652T112 671Q141 671 159 653T177 606Q177 578 159 559T111 540Q82 540 64 558ZM-43 -212T-63 -197T-83 -154Q-83 -130 -70 -116T-35 -101Q-18 -101 -5 -111T10 -142Q10
-146 9 -150T7 -160Q7 -175 26 -175Q43 -175 49 -158T56 -96V372Q56 400 51 409T28 418H-2V452L144 475H173V50Q173 -212 0 -212Q-43 -212 -63 -197Z" />
<glyph unicode="k" glyph-name="k" horiz-adv-x="545" d="M545 33V0H332V33H341Q350 33 355 36T361 44Q361 49 355 58T341 78L239 219L206 180V83Q206 62 210 52T228 37T270 33V0H25V33Q55 33 68 37T86 52T90 83V586Q90 614 84 623T61 633H31V667L178 690H206V229L308
364Q338 404 338 422Q338 437 320 437H297V470H520V437H506Q463 437 427 417T354 354L308 300L443 115Q477 68 496 51T535 33H545Z" />
<glyph unicode="l" glyph-name="l" horiz-adv-x="295" d="M25 33Q55 33 68 37T86 52T90 83V586Q90 614 84 623T61 633H31V667L178 690H206V83Q206 62 210 52T228 37T270 33V0H25V33Z" />
<glyph unicode="m" glyph-name="m" horiz-adv-x="907" d="M813 61T817 51T835 37T878 33V0H641V33Q668 33 679 35T694 47T698 78V318Q698 365 676 390T612 415Q583 415 560 402T514 361V83Q514 62 518 52T534 37T571 33V0H341V33Q368 33 379 35T394 47T399 78V318Q399
365 377 390T311 415Q254 415 215 370V78Q215 56 219 47T235 36T271 33V0H34V33Q64 33 77 37T94 51T98 83V372Q98 399 92 408T70 418H40V452L184 475H212V413Q251 445 295 462T379 480Q426 480 459 458T506 404Q538 438 585 459T680 480Q743 480 778 442T813 333V83Q813
61 817 51Z" />
<glyph unicode="n" glyph-name="n" horiz-adv-x="616" d="M520 62T524 52T543 37T586 33V0H347V33Q374 33 385 35T400 47T405 78V318Q405 365 383 390T319 415Q264 415 215 368V78Q215 56 219 47T235 36T271 33V0H34V33Q64 33 77 37T94 51T98 83V372Q98 399 92
408T70 418H40V452L184 475H212V409H213Q255 445 300 462T386 480Q449 480 484 442T520 333V83Q520 62 524 52Z" />
<glyph unicode="o" glyph-name="o" horiz-adv-x="556" d="M158 -10T102 49T45 234Q45 360 102 420T280 481Q399 481 455 422T511 236Q511 109 455 50T278 -10Q158 -10 102 49ZM336 30T362 79T388 230Q388 339 361 390T277 441Q220 441 194 392T167 235Q167 128
193 79T278 30Q336 30 362 79Z" />
<glyph unicode="p" glyph-name="p" horiz-adv-x="587" d="M447 480T494 422T542 250Q542 122 481 56T306 -11Q281 -11 259 -7T209 7V-118Q209 -139 214 -149T236 -163T289 -167V-200H30V-167Q60 -167 73 -163T90 -150T94 -118V384Q94 406 87 412T52 419H34V453L178
475H206V419H207Q230 447 272 463T361 480Q447 480 494 422ZM355 29T387 79T419 224Q419 317 389 366T301 415Q272 415 251 405T209 379V61Q244 29 293 29Q355 29 387 79Z" />
<glyph unicode="q" glyph-name="q" horiz-adv-x="558" d="M494 -139T498 -149T516 -163T557 -167V-200H305V-167Q338 -167 353 -163T373 -149T378 -118V42H377Q349 20 309 5T226 -11Q141 -11 93 52T45 224Q45 346 107 413T287 480Q326 480 355 472T426 446L467
475H494V-118Q494 -139 498 -149ZM168 152T198 103T288 54Q311 54 330 62T378 93V408Q342 440 292 440Q232 440 200 390T168 245Q168 152 198 103Z" />
<glyph unicode="r" glyph-name="r" horiz-adv-x="432" d="M380 481T400 457T421 397Q421 364 404 346T356 327Q329 327 314 341T298 380Q298 395 302 404T314 421T322 432Q322 436 319 439T309 442Q291 442 269 419T231 358T215 275V83Q215 61 220 51T243 37T298
33V0H34V33Q64 33 77 37T94 52T98 83V372Q98 399 92 408T70 418H40V452L184 475H212V388H214Q258 481 337 481Q380 481 400 457Z" />
<glyph unicode="s" glyph-name="s" horiz-adv-x="443" d="M203 -11T186 -7T144 6Q121 16 106 16Q94 16 88 12T75 -3H56L47 162H72Q91 102 132 65T224 28Q260 28 280 47T300 100Q300 121 291 134T264 159T205 190L185 200Q116 234 90 263T63 340Q63 407 107 443T227
480Q268 480 305 467Q327 461 335 461Q346 461 350 465T355 473T357 479H378L386 332H361Q349 380 315 410T236 440Q205 440 185 425T164 385Q164 340 232 309L263 295Q311 273 340 254T386 208T403 140Q403 72 356 31T230 -11Q203 -11 186 -7Z" />
<glyph unicode="t" glyph-name="t" horiz-adv-x="316" d="M130 -11T99 19T68 106V430H9V463Q61 479 92 518T141 627H183V470H290V430H183V141Q183 96 200 74T253 52Q280 52 303 62L314 37Q277 13 251 1T185 -11Q130 -11 99 19Z" />
<glyph unicode="u" glyph-name="u" horiz-adv-x="603" d="M505 62T509 52T527 37T569 33V0H392V69H391Q298 -11 216 -11Q152 -11 119 25T85 130V378Q85 406 79 415T55 424H25V457L171 475H200V159Q200 109 222 82T287 54Q313 54 340 70T389 109V378Q389 406 384
415T360 424H330V457L476 475H505V83Q505 62 509 52Z" />
<glyph unicode="v" glyph-name="v" horiz-adv-x="534" d="M65 400Q56 422 44 429T0 437V470H230V437H195Q176 437 176 422Q176 418 178 410L292 111H295L400 408Q402 418 402 421Q402 437 382 437H343V470H525V437Q494 437 481 428T459 396L296 0H222L65 400Z" />
<glyph unicode="w" glyph-name="w" horiz-adv-x="729" d="M59 400Q52 422 40 429T0 437V470H221V437H193Q182 437 177 434T172 420Q172 413 175 402L248 126H250L345 467H417L521 126H523L598 404Q599 409 599 417Q599 428 593 432T575 437H537V470H719V437Q687
437 673 428T652 396L529 0H455L354 285H349L257 0H183L59 400Z" />
<glyph unicode="x" glyph-name="x" horiz-adv-x="519" d="M444 52T460 43T509 33V0H269V33H288Q308 33 308 47Q308 56 301 66L230 175L156 70Q149 60 149 50Q149 42 154 38T170 33H192V0H10V33Q41 33 62 42T103 77L207 209L79 406Q67 424 53 430T10 437V470H230V437H214Q207
437 203 434T198 425Q198 419 203 411L272 308L342 413Q347 421 347 426Q347 432 343 434T332 437H308V470H472V437Q442 437 424 430T392 405L294 275L427 77Q444 52 460 43Z" />
<glyph unicode="y" glyph-name="y" horiz-adv-x="517" d="M507 470V437Q483 437 471 434T451 419T433 382L287 12L271 -29Q247 -93 229 -128T183 -187T112 -210Q70 -210 43 -188T16 -133Q16 -106 34 -86T78 -66Q100 -66 114 -81T129 -119Q129 -136 121 -147T113
-163Q113 -171 131 -171Q159 -171 177 -150T213 -77L235 -16L65 396Q57 416 51 424T33 434T-4 437V470H235V437H202Q183 437 183 421Q183 415 186 406L285 132H287L384 407L386 419Q386 437 366 437H327V470H507Z" />
<glyph unicode="z" glyph-name="z" horiz-adv-x="477" d="M29 34L304 431H224Q176 431 150 420T110 386T86 319H60L71 470H437V435L162 39H273Q325 39 354 50T398 86T426 160H452L441 0H29V34Z" />
<glyph unicode="{" glyph-name="braceleft" horiz-adv-x="309" d="M172 -130T148 -96T123 -3V178Q123 216 103 233T40 251V283Q87 283 105 298T123 348V533Q123 594 148 627T241 660H279V627Q244 627 228 618T209 594T205 554V372Q205 343 201 326T177 294T115
269V264Q157 255 176 241T200 211T205 166V-21Q205 -50 209 -65T229 -88T279 -97V-130H244Q172 -130 148 -96Z" />
<glyph unicode="|" glyph-name="bar" horiz-adv-x="262" d="M96 729H166V-198H96V729Z" />
<glyph unicode="}" glyph-name="braceright" horiz-adv-x="309" d="M30 -97Q64 -97 80 -89T100 -65T104 -21V166Q104 194 109 210T133 241T194 264V269Q152 279 133 294T109 326T104 372V554Q104 580 101 594T81 617T30 627V660H68Q136 660 161 627T186 533V348Q186
314 204 299T269 283V251Q226 251 206 234T186 178V-3Q186 -62 162 -96T65 -130H30V-97Z" />
<glyph unicode="~" glyph-name="asciitilde" horiz-adv-x="526" d="M49 220Q66 254 94 277T163 300Q189 300 216 291T275 267Q282 264 303 254T338 238T364 233Q387 233 405 252T444 305L477 249Q460 216 432 193T363 169Q322 169 252 202Q245 205 224 215T189
231T163 236Q138 236 122 218T82 164L49 220Z" />
<glyph unicode="&#xa1;" glyph-name="exclamdown" horiz-adv-x="314" d="M123 326T102 348T80 405Q80 439 101 460T157 482Q192 482 212 461T234 405Q234 370 213 348T157 326Q123 326 102 348ZM122 -201T106 -178T90 -123Q90 -112 92 -78L135 275H183L225 -78Q229
-112 229 -124Q229 -155 213 -178T158 -201Q122 -201 106 -178Z" />
<glyph unicode="&#xa2;" glyph-name="cent" horiz-adv-x="525" d="M469 170T428 129T309 81V0H261V81Q163 87 103 145T43 312Q43 432 99 495T261 565V660H309V565Q392 560 434 526T476 447Q476 415 458 399T406 383Q378 383 360 400T341 446Q341 458 346 471T351
490Q351 520 309 526V139Q367 142 400 167T449 225L480 211Q469 170 428 129ZM174 258T195 209T261 145V526Q216 516 195 467T174 342Q174 258 195 209Z" />
<glyph unicode="&#xa3;" glyph-name="sterling" horiz-adv-x="525" d="M491 154L452 0H66V59Q127 94 152 128T178 208Q178 249 160 306H35V348H146L121 425Q102 488 102 533Q102 672 267 672Q351 672 399 639T448 555Q448 525 432 505T387 484Q362 484 346 501T330
539Q330 557 347 585Q358 603 358 610Q358 623 337 632T281 641Q234 641 213 622T192 562Q192 519 216 441L244 348H407V306H255Q263 266 263 239Q263 196 248 165T200 98V96H390Q415 96 426 103T445 127L457 154H491Z" />
<glyph unicode="&#xa4;" glyph-name="currency" horiz-adv-x="530" d="M29 142L82 195Q35 250 35 330Q35 410 82 465L29 518L76 565L127 513Q154 536 189 548T265 560Q305 560 341 548T404 513L455 565L502 518L449 465Q495 412 495 330Q495 248 449 195L502 142L455
95L404 147Q377 124 341 112T265 100Q225 100 190 112T127 147L76 95L29 142ZM305 180T338 200T390 255T410 330Q410 370 391 404T338 459T265 480Q226 480 193 460T141 405T121 330Q121 290 140 256T193 201T265 180Q305 180 338 200Z" />
<glyph unicode="&#xa5;" glyph-name="yen" horiz-adv-x="484" d="M464 603T449 594T418 554L320 352H451V302H296V229H451V180H296V90Q296 64 301 53T323 38T379 33V0H104V33Q143 33 159 37T179 53T184 90V180H31V229H184V301L183 302H31V352H158L57 553Q42 582
29 592T-11 603V636H226V603H186Q165 603 165 589Q165 584 169 572L268 352H273L366 568Q370 577 370 586Q370 603 349 603H304V636H495V603Q464 603 449 594Z" />
<glyph unicode="&#xa6;" glyph-name="brokenbar" horiz-adv-x="262" d="M96 613H166V381H96V613ZM96 149H166V-83H96V149Z" />
<glyph unicode="&#xa7;" glyph-name="section" horiz-adv-x="547" d="M502 140T431 56Q432 51 432 40Q432 -1 412 -35T352 -89T257 -109Q190 -109 147 -81T104 -6Q104 20 117 34T155 49Q179 49 193 35T207 -4Q207 -22 201 -29T184 -40T174 -49Q174 -61 202 -68T259
-76Q306 -76 328 -58T351 -6Q351 26 332 51T288 93T214 138L172 162Q45 235 45 347Q45 396 68 440T132 516Q131 520 131 528Q131 557 145 588T197 643T296 667Q364 667 398 639T433 564Q433 535 420 521T382 506Q358 506 344 518T330 554Q330 570 336 578T353 593T363
604Q363 614 344 624T295 634Q249 634 230 615T210 568Q210 537 234 513T320 454L357 433Q429 392 465 348T502 232Q502 140 431 56ZM389 158T417 104Q429 115 437 133T445 174Q445 227 408 265T308 340L247 376Q214 395 187 421T144 476Q127 464 115 443T102 397Q102
349 141 314T254 236L297 211Q389 158 417 104Z" />
<glyph unicode="&#xa8;" glyph-name="dieresis" horiz-adv-x="379" d="M76 571T59 588T42 629Q42 652 59 669T99 686Q123 686 140 669T157 629Q157 605 140 588T99 571Q76 571 59 588ZM257 571T240 588T223 629Q223 652 240 669T280 686Q303 686 320 669T337 629Q337
605 321 588T280 571Q257 571 240 588Z" />
<glyph unicode="&#xa9;" glyph-name="copyright" horiz-adv-x="748" d="M281 -15T202 31T77 155T30 327Q30 419 76 497T202 621T374 667Q467 667 546 622T671 498T718 327Q718 234 672 156T546 31T374 -15Q281 -15 202 31ZM449 40T511 78T609 182T646 327Q646
406 610 472T511 576T375 614Q301 614 239 576T140 472T103 327Q103 248 139 182T238 78T375 40Q449 40 511 78ZM294 133T243 185T192 329Q192 387 217 431T286 499T384 523Q408 523 424 519T461 508Q481 502 485 502Q494 502 497 510L500 516H515L521 394H490Q484
435 461 460T395 486Q291 486 291 329Q291 263 314 219T400 174Q440 174 470 192T511 234L532 221Q517 185 480 159T382 133Q294 133 243 185Z" />
<glyph unicode="&#xaa;" glyph-name="ordfeminine" horiz-adv-x="354" d="M348 380Q327 370 309 365T267 360Q245 360 232 367T213 393Q191 378 168 369T114 360Q77 360 53 376T28 428Q28 477 75 505T211 549V583Q211 612 200 624T161 636Q140 636 128 630T116
617Q116 613 121 609T130 599T134 584Q134 567 123 556T94 545Q76 545 65 556T53 587Q53 620 88 643T189 666Q246 666 273 645T301 574V437Q301 413 306 404T324 395Q330 395 335 397T342 400L348 380ZM119 406T163 406Q189 406 211 422V519Q165 508 142 491T119
446Q119 406 163 406Z" />
<glyph unicode="&#xab;" glyph-name="guillemotleft" horiz-adv-x="453" d="M42 232L205 428H230L151 232L230 36H205L42 232ZM229 232L392 428H417L338 232L417 36H392L229 232Z" />
<glyph unicode="&#xac;" glyph-name="logicalnot" horiz-adv-x="527" d="M493 372V99H423V302H24V372H493Z" />
<glyph unicode="&#xae;" glyph-name="registered" horiz-adv-x="475" d="M181 256T134 283T58 358T30 462Q30 518 58 565T133 639T237 667Q294 667 341 640T417 565T445 462Q445 406 417 359T342 284T237 256Q181 256 134 283ZM282 289T319 312T379 374T401 462Q401
510 379 549T320 612T238 635Q193 635 156 612T96 550T74 462Q74 414 96 375T156 312T238 289Q282 289 319 312ZM138 370Q156 370 161 373T166 388V539Q166 551 161 554T138 558V572H254Q292 572 309 558T326 520Q326 497 311 483T272 465V464Q294 459 301 450T314
416L319 393Q322 382 331 376T347 370V355H284Q279 360 275 369T268 389L260 427Q256 441 249 447T228 453H216V388Q216 377 221 374T243 370V355H138V370ZM229 470Q273 470 273 513Q273 556 231 556Q221 556 219 554T216 543V470H229Z" />
<glyph unicode="&#xaf;" glyph-name="overscore" horiz-adv-x="417" d="M69 637H348V574H69V637Z" />
<glyph unicode="&#xb0;" glyph-name="degree" horiz-adv-x="339" d="M133 404T103 422T55 470T37 537Q37 573 54 603T102 651T169 669Q205 669 235 652T284 604T302 537Q302 501 284 471T236 422T169 404Q133 404 103 422ZM206 448T232 474T258 537Q258 573 232
599T169 625Q133 625 107 599T81 537Q81 500 107 474T169 448Q206 448 232 474Z" />
<glyph unicode="&#xb1;" glyph-name="plusminus" horiz-adv-x="517" d="M223 262H29V332H223V469H293V332H488V262H293V125H223V262ZM29 70H488V0H29V70Z" />
<glyph unicode="&#xb2;" glyph-name="uni00B2" horiz-adv-x="363" d="M28 265Q28 300 34 320T61 360T132 421Q173 454 191 471T224 512T238 567Q238 600 221 617T172 634Q155 634 142 630T129 615Q129 611 135 599T142 575Q142 557 130 544T95 531Q74 531 63 543T51
576Q51 613 89 640T198 667Q257 667 297 645T337 573Q337 533 306 502T202 427Q145 394 121 376T84 334H258Q285 334 301 347T319 380H339L316 264H28V265Z" />
<glyph unicode="&#xb3;" glyph-name="uni00B3" horiz-adv-x="367" d="M95 254T60 279T24 341Q24 364 37 379T73 394Q93 394 105 382T118 355Q118 347 113 337T108 321Q108 308 120 298T155 288Q189 288 208 312T228 381Q228 466 151 466Q133 466 108 462V492Q122
491 141 491Q179 491 195 511T212 571Q212 611 198 624T159 637Q136 637 126 630T116 606Q116 596 121 590T127 572Q127 553 116 544T84 534Q62 534 48 546T33 580Q33 602 49 623T96 657T169 670Q214 670 246 656T294 619T310 572Q310 535 276 508T191 479V478Q259
476 291 443T323 368Q323 336 303 310T245 269T159 254Q95 254 60 279Z" />
<glyph unicode="&#xb4;" glyph-name="acute" horiz-adv-x="391" d="M208 731Q217 751 228 759T255 767Q274 767 288 754T302 723Q302 712 298 703T278 675L174 562H130L208 731Z" />
<glyph unicode="&#xb5;" glyph-name="uni00B5" horiz-adv-x="585" d="M509 62T513 52T531 37T573 33V0H396V69H395Q302 -11 220 -11Q182 -11 153 2Q153 -42 164 -101Q170 -137 170 -150Q170 -178 156 -195T121 -212Q101 -212 87 -195T72 -150Q72 -132 78 -80Q89
1 89 66V378Q89 406 83 415T59 424H29V457L175 475H204V159Q204 109 226 82T291 54Q317 54 344 70T393 109V378Q393 406 388 415T364 424H334V457L480 475H509V83Q509 62 513 52Z" />
<glyph unicode="&#xb6;" glyph-name="paragraph" horiz-adv-x="529" d="M170 245Q102 265 64 318T25 446Q25 546 83 603T239 660H248V-130H170V245ZM320 660H485V628H427Q408 628 403 619T398 584V-130H320V660Z" />
<glyph unicode="&#xb7;" glyph-name="middot" horiz-adv-x="303" d="M121 197T100 218T79 269Q79 299 100 320T151 341Q181 341 202 320T224 269Q224 239 203 218T151 197Q121 197 100 218Z" />
<glyph unicode="&#xb8;" glyph-name="cedilla" horiz-adv-x="442" d="M147 -203T105 -185L119 -149Q149 -162 171 -162Q193 -162 210 -154T227 -127Q227 -94 186 -94Q174 -94 165 -99L148 -91L192 1H233L205 -57Q217 -53 235 -53Q271 -53 296 -69T322 -121Q322
-164 282 -183T193 -203Q147 -203 105 -185Z" />
<glyph unicode="&#xb9;" glyph-name="uni00B9" horiz-adv-x="312" d="M75 291H106Q120 291 122 294T125 314V594Q76 574 44 565V596Q100 617 155 660H220V314Q220 298 223 295T243 291H278V264H75V291Z" />
<glyph unicode="&#xba;" glyph-name="ordmasculine" horiz-adv-x="375" d="M112 359T70 399T28 513Q28 581 73 623T187 665Q263 665 305 625T347 513Q347 437 303 398T187 359Q112 359 70 399ZM219 389T234 418T250 513Q249 574 234 604T187 635Q155 635 140 606T124
513Q124 448 139 419T187 389Q219 389 234 418Z" />
<glyph unicode="&#xbb;" glyph-name="guillemotright" horiz-adv-x="453" d="M115 232L36 428H61L224 232L61 36H36L115 232ZM302 232L223 428H248L411 232L248 36H223L302 232Z" />
<glyph unicode="&#xbc;" glyph-name="onequarter" horiz-adv-x="846" d="M593 672H643L267 -12H217L593 672ZM95 291H126Q140 291 142 294T145 314V594Q96 574 64 565V596Q120 617 175 660H240V314Q240 298 243 295T263 291H298V264H95V291ZM579 27H607Q612 27
614 30T616 43V104H442V152Q522 256 647 401H706V159H764V104H706V43Q706 33 708 30T718 27H750V0H579V27ZM616 159V322H615Q573 278 503 183L485 159H616Z" />
<glyph unicode="&#xbd;" glyph-name="onehalf" horiz-adv-x="881" d="M574 672H624L248 -12H198L574 672ZM87 291H118Q132 291 134 294T137 314V594Q88 574 56 565V596Q112 617 167 660H232V314Q232 298 235 295T255 291H290V264H87V291ZM488 1Q488 36 494 56T521
96T592 157Q633 190 651 207T684 248T698 303Q698 336 681 353T632 370Q615 370 602 366T589 351Q589 347 595 335T602 311Q602 293 590 280T555 267Q534 267 523 279T511 312Q511 349 549 376T658 403Q717 403 757 381T797 309Q797 269 766 238T662 163Q605 130
581 112T544 70H718Q745 70 761 83T779 116H799L776 0H488V1Z" />
<glyph unicode="&#xbe;" glyph-name="threequarters" horiz-adv-x="878" d="M634 672H684L308 -12H258L634 672ZM143 254T108 279T72 341Q72 364 85 379T121 394Q141 394 153 382T166 355Q166 347 161 337T156 321Q156 308 168 298T203 288Q237 288 256 312T276
381Q276 466 199 466Q181 466 156 462V492Q170 491 189 491Q227 491 243 511T260 571Q260 611 246 624T207 637Q184 637 174 630T164 606Q164 596 169 590T175 572Q175 553 164 544T132 534Q110 534 96 546T81 580Q81 602 97 623T144 657T217 670Q262 670 294 656T342
619T358 572Q358 535 324 508T239 479V478Q307 476 339 443T371 368Q371 336 351 310T293 269T207 254Q143 254 108 279ZM621 27H649Q654 27 656 30T658 43V104H484V152Q564 256 689 401H748V159H806V104H748V43Q748 33 750 30T760 27H792V0H621V27ZM658 159V322H657Q615
278 545 183L527 159H658Z" />
<glyph unicode="&#xbf;" glyph-name="questiondown" horiz-adv-x="494" d="M241 338T220 358T199 409Q199 440 220 461T272 482Q301 482 322 461T344 410Q344 380 323 359T271 338Q241 338 220 358ZM173 -200T120 -170T66 -66Q66 -31 79 -5T110 40T161 86Q193
112 212 131T244 178T258 242V275H298V242Q298 181 282 143T234 61Q207 26 194 -2T181 -72Q181 -118 199 -146T255 -174Q283 -174 306 -160T329 -124Q329 -116 326 -111T316 -98Q308 -89 304 -80T299 -56Q299 -29 316 -14T362 2Q394 2 411 -18T428 -73Q428 -139
372 -169T243 -200Q173 -200 120 -170Z" />
<glyph unicode="&#xc0;" glyph-name="Agrave" horiz-adv-x="669" d="M593 52T607 43T658 33V0H388V33H433Q447 33 454 40T461 58Q461 66 458 75L400 243H196L140 72Q137 62 137 54Q137 33 164 33H213V0H5V33Q44 33 59 44T86 88L294 660H379L581 83Q593 52 607
43ZM389 276L298 542H295L207 276H389ZM275 865Q260 883 256 892T251 913Q251 931 265 944T298 957Q313 957 324 949T345 921L423 752H379L275 865Z" />
<glyph unicode="&#xc1;" glyph-name="Aacute" horiz-adv-x="669" d="M593 52T607 43T658 33V0H388V33H433Q447 33 454 40T461 58Q461 66 458 75L400 243H196L140 72Q137 62 137 54Q137 33 164 33H213V0H5V33Q44 33 59 44T86 88L294 660H379L581 83Q593 52 607
43ZM389 276L298 542H295L207 276H389ZM329 921Q338 941 349 949T376 957Q395 957 409 944T423 913Q423 902 419 893T399 865L295 752H251L329 921Z" />
<glyph unicode="&#xc2;" glyph-name="Acircumflex" horiz-adv-x="669" d="M593 52T607 43T658 33V0H388V33H433Q447 33 454 40T461 58Q461 66 458 75L400 243H196L140 72Q137 62 137 54Q137 33 164 33H213V0H5V33Q44 33 59 44T86 88L294 660H379L581 83Q593 52
607 43ZM389 276L298 542H295L207 276H389ZM298 915H380L487 740H444L331 841L230 740H186L298 915Z" />
<glyph unicode="&#xc3;" glyph-name="Atilde" horiz-adv-x="669" d="M593 52T607 43T658 33V0H388V33H433Q447 33 454 40T461 58Q461 66 458 75L400 243H196L140 72Q137 62 137 54Q137 33 164 33H213V0H5V33Q44 33 59 44T86 88L294 660H379L581 83Q593 52 607
43ZM389 276L298 542H295L207 276H389ZM375 748T359 753T320 770Q300 780 287 785T258 790Q238 790 226 780T210 752H180Q188 797 212 829T280 862Q299 862 315 857T356 839Q375 830 388 825T416 820Q455 820 464 858H494Q487 813 462 781T394 748Q375 748 359
753Z" />
<glyph unicode="&#xc4;" glyph-name="Adieresis" horiz-adv-x="669" d="M593 52T607 43T658 33V0H388V33H433Q447 33 454 40T461 58Q461 66 458 75L400 243H196L140 72Q137 62 137 54Q137 33 164 33H213V0H5V33Q44 33 59 44T86 88L294 660H379L581 83Q593 52 607
43ZM389 276L298 542H295L207 276H389ZM223 761T206 778T189 819Q189 842 206 859T246 876Q270 876 287 859T304 819Q304 795 287 778T246 761Q223 761 206 778ZM404 761T387 778T370 819Q370 842 387 859T427 876Q450 876 467 859T484 819Q484 795 468 778T427
761Q404 761 387 778Z" />
<glyph unicode="&#xc5;" glyph-name="Aring" horiz-adv-x="669" d="M593 52T607 43T658 33V0H388V33H433Q447 33 454 40T461 58Q461 66 458 75L400 243H196L140 72Q137 62 137 54Q137 33 164 33H213V0H5V33Q44 33 59 44T86 88L294 660H379L581 83Q593 52 607 43ZM389
276L298 542H295L207 276H389ZM296 712T268 740T240 809Q240 850 268 878T337 906Q378 906 406 878T434 809Q434 769 406 741T337 712Q296 712 268 740ZM360 755T376 771T392 809Q392 832 376 848T337 864Q315 864 299 848T283 809Q283 787 298 771T337 755Q360
755 376 771Z" />
<glyph unicode="&#xc6;" glyph-name="AE" horiz-adv-x="893" d="M859 184L847 0H342V33Q379 33 395 37T416 53T421 89V323H273L148 71Q141 57 141 48Q141 33 167 33H227V0H5V33Q43 33 60 43T93 83L353 583Q359 595 359 606Q359 616 354 621T338 627H275V660H827V493H801Q789
544 775 570T734 609T655 621H577Q554 621 547 614T539 587V367H638Q673 367 690 374T715 399T730 452H755V240H730Q723 276 716 292T691 315T638 323H539V113Q539 76 548 61T581 42T660 39Q719 39 751 53T800 96T834 184H859ZM421 367V615H417L294 367H421Z" />
<glyph unicode="&#xc7;" glyph-name="Ccedilla" horiz-adv-x="654" d="M365 -12L343 -57Q355 -53 373 -53Q409 -53 434 -69T460 -121Q460 -164 420 -183T331 -203Q285 -203 243 -185L257 -149Q287 -162 309 -162Q331 -162 348 -154T365 -127Q365 -94 324 -94Q312
-94 303 -99L286 -91L325 -9Q188 4 118 89T47 322Q47 491 134 581T382 672Q420 672 449 665T510 645Q533 635 543 635Q553 635 558 638T567 649L572 660H597L607 471H582Q568 538 523 585T391 632Q310 632 264 583T201 467T184 335Q184 203 232 116T386 29Q480
29 523 71T588 171L615 157Q606 121 580 83T503 16T379 -12H365Z" />
<glyph unicode="&#xc8;" glyph-name="Egrave" horiz-adv-x="599" d="M44 33Q81 33 97 37T118 53T123 89V570Q123 596 118 607T97 623T44 627V660H533V493H507Q495 544 481 570T440 609T361 621H283Q260 621 253 614T245 587V367H344Q379 367 396 374T421 399T436
452H461V240H436Q429 276 422 292T397 315T344 323H245V105Q245 75 252 62T284 44T366 39Q423 39 455 53T506 97T540 184H565L553 0H44V33ZM240 865Q225 883 221 892T216 913Q216 931 230 944T263 957Q278 957 289 949T310 921L388 752H344L240 865Z" />
<glyph unicode="&#xc9;" glyph-name="Eacute" horiz-adv-x="599" d="M44 33Q81 33 97 37T118 53T123 89V570Q123 596 118 607T97 623T44 627V660H533V493H507Q495 544 481 570T440 609T361 621H283Q260 621 253 614T245 587V367H344Q379 367 396 374T421 399T436
452H461V240H436Q429 276 422 292T397 315T344 323H245V105Q245 75 252 62T284 44T366 39Q423 39 455 53T506 97T540 184H565L553 0H44V33ZM294 921Q303 941 314 949T341 957Q360 957 374 944T388 913Q388 902 384 893T364 865L260 752H216L294 921Z" />
<glyph unicode="&#xca;" glyph-name="Ecircumflex" horiz-adv-x="599" d="M44 33Q81 33 97 37T118 53T123 89V570Q123 596 118 607T97 623T44 627V660H533V493H507Q495 544 481 570T440 609T361 621H283Q260 621 253 614T245 587V367H344Q379 367 396 374T421
399T436 452H461V240H436Q429 276 422 292T397 315T344 323H245V105Q245 75 252 62T284 44T366 39Q423 39 455 53T506 97T540 184H565L553 0H44V33ZM263 915H345L452 740H409L296 841L195 740H151L263 915Z" />
<glyph unicode="&#xcb;" glyph-name="Edieresis" horiz-adv-x="599" d="M44 33Q81 33 97 37T118 53T123 89V570Q123 596 118 607T97 623T44 627V660H533V493H507Q495 544 481 570T440 609T361 621H283Q260 621 253 614T245 587V367H344Q379 367 396 374T421 399T436
452H461V240H436Q429 276 422 292T397 315T344 323H245V105Q245 75 252 62T284 44T366 39Q423 39 455 53T506 97T540 184H565L553 0H44V33ZM188 761T171 778T154 819Q154 842 171 859T211 876Q235 876 252 859T269 819Q269 795 252 778T211 761Q188 761 171 778ZM369
761T352 778T335 819Q335 842 352 859T392 876Q415 876 432 859T449 819Q449 795 433 778T392 761Q369 761 352 778Z" />
<glyph unicode="&#xcc;" glyph-name="Igrave" horiz-adv-x="367" d="M44 33Q81 33 97 37T118 53T123 89V569Q123 595 118 606T97 622T44 627V660H323V627Q286 627 270 623T250 607T245 569V89Q245 64 250 53T271 37T323 33V0H44V33ZM122 865Q107 883 103 892T98
913Q98 931 112 944T145 957Q160 957 171 949T192 921L270 752H226L122 865Z" />
<glyph unicode="&#xcd;" glyph-name="Iacute" horiz-adv-x="367" d="M44 33Q81 33 97 37T118 53T123 89V569Q123 595 118 606T97 622T44 627V660H323V627Q286 627 270 623T250 607T245 569V89Q245 64 250 53T271 37T323 33V0H44V33ZM176 921Q185 941 196 949T223
957Q242 957 256 944T270 913Q270 902 266 893T246 865L142 752H98L176 921Z" />
<glyph unicode="&#xce;" glyph-name="Icircumflex" horiz-adv-x="367" d="M44 33Q81 33 97 37T118 53T123 89V569Q123 595 118 606T97 622T44 627V660H323V627Q286 627 270 623T250 607T245 569V89Q245 64 250 53T271 37T323 33V0H44V33ZM145 915H227L334 740H291L178
841L77 740H33L145 915Z" />
<glyph unicode="&#xcf;" glyph-name="Idieresis" horiz-adv-x="367" d="M44 33Q81 33 97 37T118 53T123 89V569Q123 595 118 606T97 622T44 627V660H323V627Q286 627 270 623T250 607T245 569V89Q245 64 250 53T271 37T323 33V0H44V33ZM70 761T53 778T36 819Q36
842 53 859T93 876Q117 876 134 859T151 819Q151 795 134 778T93 761Q70 761 53 778ZM251 761T234 778T217 819Q217 842 234 859T274 876Q297 876 314 859T331 819Q331 795 315 778T274 761Q251 761 234 778Z" />
<glyph unicode="&#xd0;" glyph-name="Eth" horiz-adv-x="744" d="M529 658T613 581T697 339Q697 160 605 80T327 0H44V33Q81 33 97 37T118 53T123 89V313H48V353H123V570Q123 596 118 607T97 623T44 627V660H360Q529 658 613 581ZM450 39T504 111T559 336Q559
621 338 621Q283 621 264 614T245 585V353H413V313H245V96Q245 62 262 51T332 39Q450 39 504 111Z" />
<glyph unicode="&#xd1;" glyph-name="Ntilde" horiz-adv-x="719" d="M165 548H162V85Q162 57 173 45T212 33H258V0H40V33H70Q94 33 105 45T117 85V570Q117 596 112 607T92 622T39 627V660H232L555 167H558V579Q558 627 507 627H462V660H679V627H649Q603 627 603
579V-6H527L165 548ZM398 748T382 753T343 770Q323 780 310 785T281 790Q261 790 249 780T233 752H203Q211 797 235 829T303 862Q322 862 338 857T379 839Q398 830 411 825T439 820Q478 820 487 858H517Q510 813 485 781T417 748Q398 748 382 753Z" />
<glyph unicode="&#xd2;" glyph-name="Ograve" horiz-adv-x="726" d="M203 -12T125 80T47 331Q47 490 125 581T363 672Q523 672 601 581T679 331Q679 172 601 80T363 -12Q203 -12 125 80ZM451 29T496 106T542 331Q542 478 497 554T363 631Q275 631 230 555T184
331Q184 183 229 106T363 29Q451 29 496 106ZM301 865Q286 883 282 892T277 913Q277 931 291 944T324 957Q339 957 350 949T371 921L449 752H405L301 865Z" />
<glyph unicode="&#xd3;" glyph-name="Oacute" horiz-adv-x="726" d="M203 -12T125 80T47 331Q47 490 125 581T363 672Q523 672 601 581T679 331Q679 172 601 80T363 -12Q203 -12 125 80ZM451 29T496 106T542 331Q542 478 497 554T363 631Q275 631 230 555T184
331Q184 183 229 106T363 29Q451 29 496 106ZM355 921Q364 941 375 949T402 957Q421 957 435 944T449 913Q449 902 445 893T425 865L321 752H277L355 921Z" />
<glyph unicode="&#xd4;" glyph-name="Ocircumflex" horiz-adv-x="726" d="M203 -12T125 80T47 331Q47 490 125 581T363 672Q523 672 601 581T679 331Q679 172 601 80T363 -12Q203 -12 125 80ZM451 29T496 106T542 331Q542 478 497 554T363 631Q275 631 230 555T184
331Q184 183 229 106T363 29Q451 29 496 106ZM324 915H406L513 740H470L357 841L256 740H212L324 915Z" />
<glyph unicode="&#xd5;" glyph-name="Otilde" horiz-adv-x="726" d="M203 -12T125 80T47 331Q47 490 125 581T363 672Q523 672 601 581T679 331Q679 172 601 80T363 -12Q203 -12 125 80ZM451 29T496 106T542 331Q542 478 497 554T363 631Q275 631 230 555T184
331Q184 183 229 106T363 29Q451 29 496 106ZM401 748T385 753T346 770Q326 780 313 785T284 790Q264 790 252 780T236 752H206Q214 797 238 829T306 862Q325 862 341 857T382 839Q401 830 414 825T442 820Q481 820 490 858H520Q513 813 488 781T420 748Q401 748
385 753Z" />
<glyph unicode="&#xd6;" glyph-name="Odieresis" horiz-adv-x="726" d="M203 -12T125 80T47 331Q47 490 125 581T363 672Q523 672 601 581T679 331Q679 172 601 80T363 -12Q203 -12 125 80ZM451 29T496 106T542 331Q542 478 497 554T363 631Q275 631 230 555T184
331Q184 183 229 106T363 29Q451 29 496 106ZM249 761T232 778T215 819Q215 842 232 859T272 876Q296 876 313 859T330 819Q330 795 313 778T272 761Q249 761 232 778ZM430 761T413 778T396 819Q396 842 413 859T453 876Q476 876 493 859T510 819Q510 795 494 778T453
761Q430 761 413 778Z" />
<glyph unicode="&#xd7;" glyph-name="multiply" horiz-adv-x="502" d="M43 81L202 240L43 399L93 448L251 288L411 448L459 399L300 240L459 81L410 32L251 191L93 32L43 81Z" />
<glyph unicode="&#xd8;" glyph-name="Oslash" horiz-adv-x="726" d="M679 493T679 331Q679 172 601 80T363 -12Q230 -12 153 53L103 -6H52L125 80Q47 168 47 331Q47 490 125 581T363 672Q495 672 573 608L622 666H672L600 582Q679 493 679 331ZM184 237T202 171L508
532Q464 631 363 631Q275 631 230 555T184 331Q184 237 202 171ZM451 29T496 106T542 331Q542 427 523 490L217 129Q262 29 363 29Q451 29 496 106Z" />
<glyph unicode="&#xd9;" glyph-name="Ugrave" horiz-adv-x="758" d="M240 -12T179 44T117 228V570Q117 596 112 607T92 622T39 627V660H318V627Q281 627 265 623T244 607T239 570V226Q239 129 275 79T382 29Q523 29 523 226V570Q523 596 518 607T498 622T445 627V660H724V627Q686
627 670 623T650 608T645 570V228Q645 103 581 46T377 -12Q240 -12 179 44ZM320 865Q305 883 301 892T296 913Q296 931 310 944T343 957Q358 957 369 949T390 921L468 752H424L320 865Z" />
<glyph unicode="&#xda;" glyph-name="Uacute" horiz-adv-x="758" d="M240 -12T179 44T117 228V570Q117 596 112 607T92 622T39 627V660H318V627Q281 627 265 623T244 607T239 570V226Q239 129 275 79T382 29Q523 29 523 226V570Q523 596 518 607T498 622T445 627V660H724V627Q686
627 670 623T650 608T645 570V228Q645 103 581 46T377 -12Q240 -12 179 44ZM374 921Q383 941 394 949T421 957Q440 957 454 944T468 913Q468 902 464 893T444 865L340 752H296L374 921Z" />
<glyph unicode="&#xdb;" glyph-name="Ucircumflex" horiz-adv-x="758" d="M240 -12T179 44T117 228V570Q117 596 112 607T92 622T39 627V660H318V627Q281 627 265 623T244 607T239 570V226Q239 129 275 79T382 29Q523 29 523 226V570Q523 596 518 607T498 622T445
627V660H724V627Q686 627 670 623T650 608T645 570V228Q645 103 581 46T377 -12Q240 -12 179 44ZM343 915H425L532 740H489L376 841L275 740H231L343 915Z" />
<glyph unicode="&#xdc;" glyph-name="Udieresis" horiz-adv-x="758" d="M240 -12T179 44T117 228V570Q117 596 112 607T92 622T39 627V660H318V627Q281 627 265 623T244 607T239 570V226Q239 129 275 79T382 29Q523 29 523 226V570Q523 596 518 607T498 622T445
627V660H724V627Q686 627 670 623T650 608T645 570V228Q645 103 581 46T377 -12Q240 -12 179 44ZM268 761T251 778T234 819Q234 842 251 859T291 876Q315 876 332 859T349 819Q349 795 332 778T291 761Q268 761 251 778ZM449 761T432 778T415 819Q415 842 432 859T472
876Q495 876 512 859T529 819Q529 795 513 778T472 761Q449 761 432 778Z" />
<glyph unicode="&#xdd;" glyph-name="Yacute" horiz-adv-x="633" d="M623 660V627Q581 627 563 618T529 578L372 269V90Q372 64 378 53T404 38T467 33V0H165V33Q209 33 228 37T252 53T257 90V259L97 577Q82 607 66 617T15 627V660H287V627H239Q218 627 218 614Q218
608 223 596L349 322H352L472 592Q477 605 477 612Q477 627 456 627H411V660H623ZM297 921Q306 941 317 949T344 957Q363 957 377 944T391 913Q391 902 387 893T367 865L263 752H219L297 921Z" />
<glyph unicode="&#xde;" glyph-name="Thorn" horiz-adv-x="598" d="M44 33Q81 33 97 37T118 53T123 91V569Q123 595 118 606T97 622T44 627V660H324V627Q287 627 271 623T250 607T245 569V522H329Q573 522 573 349Q573 244 495 206T300 167H245V91Q245 64 250
53T273 37T332 33V0H44V33ZM305 207Q442 207 442 345Q442 482 303 482Q267 482 256 473T245 445V207H305Z" />
<glyph unicode="&#xdf;" glyph-name="germandbls" horiz-adv-x="599" d="M520 252T549 217T578 129Q578 64 535 27T416 -11Q367 -11 339 7T311 53Q311 74 323 89T359 104Q377 104 388 95T399 71Q399 66 396 56T392 43Q392 36 402 32T429 28Q453 28 467 43T482
83Q482 117 460 143T386 203Q288 266 288 348Q288 394 313 428T386 475Q409 504 409 554Q409 601 382 632T312 663Q204 663 204 460V82Q204 61 208 51T226 37T267 33V0H25V33Q65 33 76 40T88 67V427H25V470H88Q92 590 147 647T312 704Q430 704 472 657T515 552Q515
530 508 509T492 475Q449 468 419 445T389 390Q389 360 411 336T472 286Q520 252 549 217Z" />
<glyph unicode="&#xe0;" glyph-name="agrave" horiz-adv-x="512" d="M506 21Q484 8 459 -1T395 -10Q354 -10 337 3T319 57Q285 27 249 9T169 -10Q115 -10 80 16T45 90Q45 158 117 209T319 284V345Q318 387 298 408T226 429Q198 429 178 421T157 403Q157 394 169
382Q177 373 181 366T185 347Q185 322 170 308T130 293Q104 293 88 309T72 351Q72 384 96 413T167 459T277 477Q357 477 394 444T432 330V108Q432 69 440 55T468 40Q478 40 486 43T496 48L506 21ZM158 62T232 62Q273 62 319 99V245Q236 227 197 199T158 125Q158
62 232 62ZM195 675Q180 693 176 702T171 723Q171 741 185 754T218 767Q233 767 244 759T265 731L343 562H299L195 675Z" />
<glyph unicode="&#xe1;" glyph-name="aacute" horiz-adv-x="512" d="M506 21Q484 8 459 -1T395 -10Q354 -10 337 3T319 57Q285 27 249 9T169 -10Q115 -10 80 16T45 90Q45 158 117 209T319 284V345Q318 387 298 408T226 429Q198 429 178 421T157 403Q157 394 169
382Q177 373 181 366T185 347Q185 322 170 308T130 293Q104 293 88 309T72 351Q72 384 96 413T167 459T277 477Q357 477 394 444T432 330V108Q432 69 440 55T468 40Q478 40 486 43T496 48L506 21ZM158 62T232 62Q273 62 319 99V245Q236 227 197 199T158 125Q158
62 232 62ZM249 731Q258 751 269 759T296 767Q315 767 329 754T343 723Q343 712 339 703T319 675L215 562H171L249 731Z" />
<glyph unicode="&#xe2;" glyph-name="acircumflex" horiz-adv-x="512" d="M506 21Q484 8 459 -1T395 -10Q354 -10 337 3T319 57Q285 27 249 9T169 -10Q115 -10 80 16T45 90Q45 158 117 209T319 284V345Q318 387 298 408T226 429Q198 429 178 421T157 403Q157 394
169 382Q177 373 181 366T185 347Q185 322 170 308T130 293Q104 293 88 309T72 351Q72 384 96 413T167 459T277 477Q357 477 394 444T432 330V108Q432 69 440 55T468 40Q478 40 486 43T496 48L506 21ZM158 62T232 62Q273 62 319 99V245Q236 227 197 199T158 125Q158
62 232 62ZM218 725H300L407 550H364L251 651L150 550H106L218 725Z" />
<glyph unicode="&#xe3;" glyph-name="atilde" horiz-adv-x="512" d="M506 21Q484 8 459 -1T395 -10Q354 -10 337 3T319 57Q285 27 249 9T169 -10Q115 -10 80 16T45 90Q45 158 117 209T319 284V345Q318 387 298 408T226 429Q198 429 178 421T157 403Q157 394 169
382Q177 373 181 366T185 347Q185 322 170 308T130 293Q104 293 88 309T72 351Q72 384 96 413T167 459T277 477Q357 477 394 444T432 330V108Q432 69 440 55T468 40Q478 40 486 43T496 48L506 21ZM158 62T232 62Q273 62 319 99V245Q236 227 197 199T158 125Q158
62 232 62ZM295 558T279 563T240 580Q220 590 207 595T178 600Q158 600 146 590T130 562H100Q108 607 132 639T200 672Q219 672 235 667T276 649Q295 640 308 635T336 630Q375 630 384 668H414Q407 623 382 591T314 558Q295 558 279 563Z" />
<glyph unicode="&#xe4;" glyph-name="adieresis" horiz-adv-x="512" d="M506 21Q484 8 459 -1T395 -10Q354 -10 337 3T319 57Q285 27 249 9T169 -10Q115 -10 80 16T45 90Q45 158 117 209T319 284V345Q318 387 298 408T226 429Q198 429 178 421T157 403Q157 394
169 382Q177 373 181 366T185 347Q185 322 170 308T130 293Q104 293 88 309T72 351Q72 384 96 413T167 459T277 477Q357 477 394 444T432 330V108Q432 69 440 55T468 40Q478 40 486 43T496 48L506 21ZM158 62T232 62Q273 62 319 99V245Q236 227 197 199T158 125Q158
62 232 62ZM143 571T126 588T109 629Q109 652 126 669T166 686Q190 686 207 669T224 629Q224 605 207 588T166 571Q143 571 126 588ZM324 571T307 588T290 629Q290 652 307 669T347 686Q370 686 387 669T404 629Q404 605 388 588T347 571Q324 571 307 588Z" />
<glyph unicode="&#xe5;" glyph-name="aring" horiz-adv-x="512" d="M506 21Q484 8 459 -1T395 -10Q354 -10 337 3T319 57Q285 27 249 9T169 -10Q115 -10 80 16T45 90Q45 158 117 209T319 284V345Q318 387 298 408T226 429Q198 429 178 421T157 403Q157 394 169
382Q177 373 181 366T185 347Q185 322 170 308T130 293Q104 293 88 309T72 351Q72 384 96 413T167 459T277 477Q357 477 394 444T432 330V108Q432 69 440 55T468 40Q478 40 486 43T496 48L506 21ZM158 62T232 62Q273 62 319 99V245Q236 227 197 199T158 125Q158
62 232 62ZM216 522T188 550T160 619Q160 660 188 688T257 716Q298 716 326 688T354 619Q354 579 326 551T257 522Q216 522 188 550ZM280 565T296 581T312 619Q312 642 296 658T257 674Q235 674 219 658T203 619Q203 597 218 581T257 565Q280 565 296 581Z" />
<glyph unicode="&#xe6;" glyph-name="ae" horiz-adv-x="787" d="M741 229H441Q444 142 474 98T576 53Q627 53 655 75T709 143L736 125Q719 88 698 60T637 11T533 -10Q417 -10 362 66Q266 -10 172 -10Q116 -10 81 16T45 90Q45 158 117 209T319 284V345Q319 386
298 407T227 429Q195 429 176 421T157 403Q157 399 165 391T179 374T185 347Q185 322 170 308T130 293Q104 293 88 309T72 352Q72 385 96 413T167 459T278 477Q362 477 398 441Q452 480 540 480Q647 480 694 422T741 237V229ZM619 269Q619 334 611 371T586 424T537
440Q487 440 464 400T440 269H619ZM268 62T293 72T342 101Q318 155 318 237V245Q235 227 197 199T158 125Q158 62 234 62Q268 62 293 72Z" />
<glyph unicode="&#xe7;" glyph-name="ccedilla" horiz-adv-x="494" d="M258 -10L235 -57Q247 -53 265 -53Q301 -53 326 -69T352 -121Q352 -164 312 -183T223 -203Q177 -203 135 -185L149 -149Q179 -162 201 -162Q223 -162 240 -154T257 -127Q257 -94 216 -94Q204
-94 195 -99L178 -91L218 -7Q135 5 91 64T47 230Q47 355 106 417T276 480Q338 480 379 462T439 416T458 354Q458 324 443 307T400 290Q373 290 359 306T344 347Q344 362 348 372T354 384Q361 396 361 404Q361 420 343 430T291 440Q232 440 201 400T170 255Q170
152 203 102T305 52Q362 52 390 78T439 144L464 129Q441 61 396 26T266 -10H258Z" />
<glyph unicode="&#xe8;" glyph-name="egrave" horiz-adv-x="517" d="M470 229H170Q173 143 203 98T304 53Q353 53 385 75T436 143L467 125Q442 64 397 27T262 -10Q47 -10 47 233Q47 356 101 418T261 480Q371 480 420 416T470 242V229ZM348 269Q348 358 332 399T265
440Q216 440 194 399T169 269H348ZM200 675Q185 693 181 702T176 723Q176 741 190 754T223 767Q238 767 249 759T270 731L348 562H304L200 675Z" />
<glyph unicode="&#xe9;" glyph-name="eacute" horiz-adv-x="517" d="M470 229H170Q173 143 203 98T304 53Q353 53 385 75T436 143L467 125Q442 64 397 27T262 -10Q47 -10 47 233Q47 356 101 418T261 480Q371 480 420 416T470 242V229ZM348 269Q348 358 332 399T265
440Q216 440 194 399T169 269H348ZM254 731Q263 751 274 759T301 767Q320 767 334 754T348 723Q348 712 344 703T324 675L220 562H176L254 731Z" />
<glyph unicode="&#xea;" glyph-name="ecircumflex" horiz-adv-x="517" d="M470 229H170Q173 143 203 98T304 53Q353 53 385 75T436 143L467 125Q442 64 397 27T262 -10Q47 -10 47 233Q47 356 101 418T261 480Q371 480 420 416T470 242V229ZM348 269Q348 358 332
399T265 440Q216 440 194 399T169 269H348ZM223 725H305L412 550H369L256 651L155 550H111L223 725Z" />
<glyph unicode="&#xeb;" glyph-name="edieresis" horiz-adv-x="517" d="M470 229H170Q173 143 203 98T304 53Q353 53 385 75T436 143L467 125Q442 64 397 27T262 -10Q47 -10 47 233Q47 356 101 418T261 480Q371 480 420 416T470 242V229ZM348 269Q348 358 332
399T265 440Q216 440 194 399T169 269H348ZM148 571T131 588T114 629Q114 652 131 669T171 686Q195 686 212 669T229 629Q229 605 212 588T171 571Q148 571 131 588ZM329 571T312 588T295 629Q295 652 312 669T352 686Q375 686 392 669T409 629Q409 605 393 588T352
571Q329 571 312 588Z" />
<glyph unicode="&#xec;" glyph-name="igrave" horiz-adv-x="289" d="M30 33Q60 33 73 37T90 52T94 83V372Q94 400 89 409T66 418H36V452L182 475H211V83Q211 61 215 51T232 37T275 33V0H30V33ZM83 675Q68 693 64 702T59 723Q59 741 73 754T106 767Q121 767 132
759T153 731L231 562H187L83 675Z" />
<glyph unicode="&#xed;" glyph-name="iacute" horiz-adv-x="289" d="M30 33Q60 33 73 37T90 52T94 83V372Q94 400 89 409T66 418H36V452L182 475H211V83Q211 61 215 51T232 37T275 33V0H30V33ZM137 731Q146 751 157 759T184 767Q203 767 217 754T231 723Q231 712
227 703T207 675L103 562H59L137 731Z" />
<glyph unicode="&#xee;" glyph-name="icircumflex" horiz-adv-x="289" d="M30 33Q60 33 73 37T90 52T94 83V372Q94 400 89 409T66 418H36V452L182 475H211V83Q211 61 215 51T232 37T275 33V0H30V33ZM106 725H188L295 550H252L139 651L38 550H-6L106 725Z" />
<glyph unicode="&#xef;" glyph-name="idieresis" horiz-adv-x="289" d="M30 33Q60 33 73 37T90 52T94 83V372Q94 400 89 409T66 418H36V452L182 475H211V83Q211 61 215 51T232 37T275 33V0H30V33ZM31 571T14 588T-3 629Q-3 652 14 669T54 686Q78 686 95 669T112
629Q112 605 95 588T54 571Q31 571 14 588ZM212 571T195 588T178 629Q178 652 195 669T235 686Q258 686 275 669T292 629Q292 605 276 588T235 571Q212 571 195 588Z" />
<glyph unicode="&#xf0;" glyph-name="eth" horiz-adv-x="564" d="M463 449T488 386T513 244Q513 122 455 55T276 -12Q162 -12 104 50T45 234Q45 356 103 418T271 480Q290 480 314 476L315 477Q280 521 242 559L121 507L98 540L211 589Q161 634 111 673L154 707Q225
666 284 621L418 679L441 646L319 593Q377 545 411 507Q463 449 488 386ZM337 28T363 79T389 238Q389 344 364 392T281 440Q223 440 196 391T169 239Q169 133 197 81T282 28Q337 28 363 79Z" />
<glyph unicode="&#xf1;" glyph-name="ntilde" horiz-adv-x="616" d="M520 62T524 52T543 37T586 33V0H347V33Q374 33 385 35T400 47T405 78V318Q405 365 383 390T319 415Q264 415 215 368V78Q215 56 219 47T235 36T271 33V0H34V33Q64 33 77 37T94 51T98 83V372Q98
399 92 408T70 418H40V452L184 475H212V409H213Q255 445 300 462T386 480Q449 480 484 442T520 333V83Q520 62 524 52ZM340 558T324 563T285 580Q265 590 252 595T223 600Q203 600 191 590T175 562H145Q153 607 177 639T245 672Q264 672 280 667T321 649Q340 640
353 635T381 630Q420 630 429 668H459Q452 623 427 591T359 558Q340 558 324 563Z" />
<glyph unicode="&#xf2;" glyph-name="ograve" horiz-adv-x="556" d="M158 -10T102 49T45 234Q45 360 102 420T280 481Q399 481 455 422T511 236Q511 109 455 50T278 -10Q158 -10 102 49ZM336 30T362 79T388 230Q388 339 361 390T277 441Q220 441 194 392T167 235Q167
128 193 79T278 30Q336 30 362 79ZM216 675Q201 693 197 702T192 723Q192 741 206 754T239 767Q254 767 265 759T286 731L364 562H320L216 675Z" />
<glyph unicode="&#xf3;" glyph-name="oacute" horiz-adv-x="556" d="M158 -10T102 49T45 234Q45 360 102 420T280 481Q399 481 455 422T511 236Q511 109 455 50T278 -10Q158 -10 102 49ZM336 30T362 79T388 230Q388 339 361 390T277 441Q220 441 194 392T167 235Q167
128 193 79T278 30Q336 30 362 79ZM270 731Q279 751 290 759T317 767Q336 767 350 754T364 723Q364 712 360 703T340 675L236 562H192L270 731Z" />
<glyph unicode="&#xf4;" glyph-name="ocircumflex" horiz-adv-x="556" d="M158 -10T102 49T45 234Q45 360 102 420T280 481Q399 481 455 422T511 236Q511 109 455 50T278 -10Q158 -10 102 49ZM336 30T362 79T388 230Q388 339 361 390T277 441Q220 441 194 392T167
235Q167 128 193 79T278 30Q336 30 362 79ZM239 725H321L428 550H385L272 651L171 550H127L239 725Z" />
<glyph unicode="&#xf5;" glyph-name="otilde" horiz-adv-x="556" d="M158 -10T102 49T45 234Q45 360 102 420T280 481Q399 481 455 422T511 236Q511 109 455 50T278 -10Q158 -10 102 49ZM336 30T362 79T388 230Q388 339 361 390T277 441Q220 441 194 392T167 235Q167
128 193 79T278 30Q336 30 362 79ZM316 558T300 563T261 580Q241 590 228 595T199 600Q179 600 167 590T151 562H121Q129 607 153 639T221 672Q240 672 256 667T297 649Q316 640 329 635T357 630Q396 630 405 668H435Q428 623 403 591T335 558Q316 558 300 563Z"
/>
<glyph unicode="&#xf6;" glyph-name="odieresis" horiz-adv-x="556" d="M158 -10T102 49T45 234Q45 360 102 420T280 481Q399 481 455 422T511 236Q511 109 455 50T278 -10Q158 -10 102 49ZM336 30T362 79T388 230Q388 339 361 390T277 441Q220 441 194 392T167
235Q167 128 193 79T278 30Q336 30 362 79ZM164 571T147 588T130 629Q130 652 147 669T187 686Q211 686 228 669T245 629Q245 605 228 588T187 571Q164 571 147 588ZM345 571T328 588T311 629Q311 652 328 669T368 686Q391 686 408 669T425 629Q425 605 409 588T368
571Q345 571 328 588Z" />
<glyph unicode="&#xf7;" glyph-name="divide" horiz-adv-x="527" d="M237 354T218 374T198 421Q198 449 217 469T265 489Q293 489 312 469T332 421Q332 394 313 374T265 354Q237 354 218 374ZM29 274H498V205H29V274ZM237 -10T218 10T198 58Q198 86 217 105T265
125Q293 125 312 106T332 58Q332 30 313 10T265 -10Q237 -10 218 10Z" />
<glyph unicode="&#xf8;" glyph-name="oslash" horiz-adv-x="564" d="M519 370T519 236Q519 109 463 50T286 -10Q182 -10 126 34L93 -6H45L100 60Q53 119 53 234Q53 360 110 420T288 481Q373 481 425 451L446 476H493L455 430Q519 370 519 236ZM175 194T180 156L371
386Q345 441 285 441Q228 441 202 392T175 235Q175 194 180 156ZM344 30T370 79T396 230Q396 299 385 346L189 110Q202 69 225 50T286 30Q344 30 370 79Z" />
<glyph unicode="&#xf9;" glyph-name="ugrave" horiz-adv-x="603" d="M505 62T509 52T527 37T569 33V0H392V69H391Q298 -11 216 -11Q152 -11 119 25T85 130V378Q85 406 79 415T55 424H25V457L171 475H200V159Q200 109 222 82T287 54Q313 54 340 70T389 109V378Q389
406 384 415T360 424H330V457L476 475H505V83Q505 62 509 52ZM230 675Q215 693 211 702T206 723Q206 741 220 754T253 767Q268 767 279 759T300 731L378 562H334L230 675Z" />
<glyph unicode="&#xfa;" glyph-name="uacute" horiz-adv-x="603" d="M505 62T509 52T527 37T569 33V0H392V69H391Q298 -11 216 -11Q152 -11 119 25T85 130V378Q85 406 79 415T55 424H25V457L171 475H200V159Q200 109 222 82T287 54Q313 54 340 70T389 109V378Q389
406 384 415T360 424H330V457L476 475H505V83Q505 62 509 52ZM284 731Q293 751 304 759T331 767Q350 767 364 754T378 723Q378 712 374 703T354 675L250 562H206L284 731Z" />
<glyph unicode="&#xfb;" glyph-name="ucircumflex" horiz-adv-x="603" d="M505 62T509 52T527 37T569 33V0H392V69H391Q298 -11 216 -11Q152 -11 119 25T85 130V378Q85 406 79 415T55 424H25V457L171 475H200V159Q200 109 222 82T287 54Q313 54 340 70T389 109V378Q389
406 384 415T360 424H330V457L476 475H505V83Q505 62 509 52ZM253 725H335L442 550H399L286 651L185 550H141L253 725Z" />
<glyph unicode="&#xfc;" glyph-name="udieresis" horiz-adv-x="603" d="M505 62T509 52T527 37T569 33V0H392V69H391Q298 -11 216 -11Q152 -11 119 25T85 130V378Q85 406 79 415T55 424H25V457L171 475H200V159Q200 109 222 82T287 54Q313 54 340 70T389 109V378Q389
406 384 415T360 424H330V457L476 475H505V83Q505 62 509 52ZM178 571T161 588T144 629Q144 652 161 669T201 686Q225 686 242 669T259 629Q259 605 242 588T201 571Q178 571 161 588ZM359 571T342 588T325 629Q325 652 342 669T382 686Q405 686 422 669T439 629Q439
605 423 588T382 571Q359 571 342 588Z" />
<glyph unicode="&#xfd;" glyph-name="yacute" horiz-adv-x="517" d="M507 470V437Q483 437 471 434T451 419T433 382L287 12L271 -29Q247 -93 229 -128T183 -187T112 -210Q70 -210 43 -188T16 -133Q16 -106 34 -86T78 -66Q100 -66 114 -81T129 -119Q129 -136 121
-147T113 -163Q113 -171 131 -171Q159 -171 177 -150T213 -77L235 -16L65 396Q57 416 51 424T33 434T-4 437V470H235V437H202Q183 437 183 421Q183 415 186 406L285 132H287L384 407L386 419Q386 437 366 437H327V470H507ZM236 731Q245 751 256 759T283 767Q302
767 316 754T330 723Q330 712 326 703T306 675L202 562H158L236 731Z" />
<glyph unicode="&#xfe;" glyph-name="thorn" horiz-adv-x="563" d="M423 480T470 422T518 250Q518 122 457 56T282 -11Q257 -11 235 -7T185 7V-118Q185 -139 190 -149T212 -163T265 -167V-200H6V-167Q36 -167 49 -163T66 -150T70 -118V599Q70 621 63 627T28 634H10V668L157
690H185V421Q208 449 249 464T337 480Q423 480 470 422ZM331 29T363 79T395 224Q395 317 365 366T277 415Q248 415 227 405T185 379V61Q220 29 269 29Q331 29 363 79Z" />
<glyph unicode="&#xff;" glyph-name="ydieresis" horiz-adv-x="517" d="M507 470V437Q483 437 471 434T451 419T433 382L287 12L271 -29Q247 -93 229 -128T183 -187T112 -210Q70 -210 43 -188T16 -133Q16 -106 34 -86T78 -66Q100 -66 114 -81T129 -119Q129 -136
121 -147T113 -163Q113 -171 131 -171Q159 -171 177 -150T213 -77L235 -16L65 396Q57 416 51 424T33 434T-4 437V470H235V437H202Q183 437 183 421Q183 415 186 406L285 132H287L384 407L386 419Q386 437 366 437H327V470H507ZM130 571T113 588T96 629Q96 652 113
669T153 686Q177 686 194 669T211 629Q211 605 194 588T153 571Q130 571 113 588ZM311 571T294 588T277 629Q277 652 294 669T334 686Q357 686 374 669T391 629Q391 605 375 588T334 571Q311 571 294 588Z" />
<glyph unicode="&#x2013;" glyph-name="endash" horiz-adv-x="344" d="M0 328H344V258H0V328Z" />
<glyph unicode="&#x2014;" glyph-name="emdash" horiz-adv-x="757" d="M0 328H757V258H0V328Z" />
<glyph unicode="&#x2018;" glyph-name="quoteleft" horiz-adv-x="290" d="M115 412T93 436T71 513Q71 577 106 623T209 679L213 649Q186 646 161 628T136 581Q136 569 141 564T158 555Q185 548 202 534T220 487Q220 452 199 432T147 412Q115 412 93 436Z" />
<glyph unicode="&#x2019;" glyph-name="quoteright" horiz-adv-x="290" d="M77 442Q104 445 129 463T154 510Q154 522 149 527T132 536Q105 543 88 557T70 604Q70 639 91 659T143 679Q175 679 197 655T219 578Q219 514 184 468T81 412L77 442Z" />
<glyph unicode="&#x201a;" glyph-name="quotesinglbase" horiz-adv-x="290" d="M77 -102Q104 -99 129 -81T154 -34Q154 -22 149 -17T132 -8Q105 -1 88 13T70 60Q70 95 91 115T143 135Q175 135 197 111T219 34Q219 -30 184 -76T81 -132L77 -102Z" />
<glyph unicode="&#x201c;" glyph-name="quotedblleft" horiz-adv-x="468" d="M113 412T91 436T69 513Q69 577 104 623T207 679L211 649Q184 646 159 628T134 581Q134 569 139 564T156 555Q183 548 200 534T218 487Q218 452 197 432T145 412Q113 412 91 436ZM294
412T272 436T250 513Q250 577 285 623T388 679L392 649Q365 646 340 628T315 581Q315 569 320 564T337 555Q364 548 381 534T399 487Q399 452 378 432T326 412Q294 412 272 436Z" />
<glyph unicode="&#x201d;" glyph-name="quotedblright" horiz-adv-x="468" d="M76 442Q103 445 128 463T153 510Q153 522 148 527T131 536Q104 543 87 557T69 604Q69 639 90 659T142 679Q174 679 196 655T218 578Q218 514 183 468T80 412L76 442ZM257 442Q284
445 309 463T334 510Q334 522 329 527T312 536Q285 543 268 557T250 604Q250 639 271 659T323 679Q355 679 377 655T399 578Q399 514 364 468T261 412L257 442Z" />
<glyph unicode="&#x201e;" glyph-name="quotedblbase" horiz-adv-x="468" d="M76 -102Q103 -99 128 -81T153 -34Q153 -22 148 -17T131 -8Q104 -1 87 13T69 60Q69 95 90 115T142 135Q174 135 196 111T218 34Q218 -30 183 -76T80 -132L76 -102ZM257 -102Q284 -99
309 -81T334 -34Q334 -22 329 -17T312 -8Q285 -1 268 13T250 60Q250 95 271 115T323 135Q355 135 377 111T399 34Q399 -30 364 -76T261 -132L257 -102Z" />
<glyph unicode="&#x2022;" glyph-name="bullet" horiz-adv-x="406" d="M160 170T123 191T64 250T42 332Q42 376 63 413T122 472T204 494Q247 494 284 472T343 413T365 332Q365 288 343 251T284 192T204 170Q160 170 123 191Z" />
<glyph unicode="&#x2039;" glyph-name="guilsinglleft" horiz-adv-x="266" d="M42 232L205 428H230L151 232L230 36H205L42 232Z" />
<glyph unicode="&#x203a;" glyph-name="guilsinglright" horiz-adv-x="265" d="M115 232L36 428H61L224 232L61 36H36L115 232Z" />
</font>
</defs>
</svg>
