<?xml version="1.0" standalone="no"?>
<!DOCTYPE svg PUBLIC "-//W3C//DTD SVG 1.1//EN" "http://www.w3.org/Graphics/SVG/1.1/DTD/svg11.dtd">
<svg xmlns="http://www.w3.org/2000/svg">
<defs >
<font id="FrankRuhlLibre" horiz-adv-x="534" ><font-face
    font-family="Frank Ruhl Libre"
    units-per-em="1000"
    panose-1="0 0 8 0 0 0 0 0 0 0"
    ascent="957"
    descent="-334"
    alphabetic="0" />
<glyph unicode=" " glyph-name="space" horiz-adv-x="222" />
<glyph unicode="!" glyph-name="exclam" horiz-adv-x="319" d="M86 548Q83 575 83 593Q83 628 101 649T160 671Q200 671 219 650T238 593Q238 572 234 548L184 201H136L86 548ZM126 -10T104 12T81 68Q81 102 104 125T160 148Q193 148 215 125T238 68Q238 35 216
13T159 -10Q126 -10 104 12Z" />
<glyph unicode="&quot;" glyph-name="quotedbl" horiz-adv-x="419" d="M257 675T269 660T281 624Q281 602 278 582L258 444Q253 419 228 419Q215 419 209 425Q203 419 190 419Q176 419 169 426T161 444L141 582Q137 608 137 624Q137 645 149 660T190 675Q197 675
209 673Q219 675 228 675Q257 675 269 660Z" />
<glyph unicode="#" glyph-name="numbersign" horiz-adv-x="499" d="M389 388L373 269H452V198H363L336 0H262L289 198H175L148 0H74L101 198H21V269H111L127 388H47V458H137L165 660H239L211 458H325L353 660H427L399 458H478V388H389ZM315 388H201L185 269H299L315 388Z" />
<glyph unicode="$" glyph-name="dollar" horiz-adv-x="553" d="M517 98T458 51T313 -3V-97H260V-5Q204 -2 156 15T80 60T51 123Q51 149 67 166T113 183Q141 183 157 167T173 126Q173 113 170 105T160 88T153 72Q153 54 185 42T260 27V271L219 289Q145 320 105
369T64 485Q64 561 116 609T260 665V732H313V665Q391 660 439 628T487 548Q487 521 471 505T426 488Q398 488 383 504T367 547Q367 565 375 576T384 594Q384 609 366 620T313 636V407L354 389Q438 352 477 305T517 193Q517 98 458 51ZM161 502T186 477T260 430V635Q212
630 187 606T161 544Q161 502 186 477ZM361 34T387 59T414 128Q414 169 388 197T313 248V28Q361 34 387 59Z" />
<glyph unicode="%" glyph-name="percent" horiz-adv-x="860" d="M584 672H639L270 -12H215L584 672ZM153 321T107 367T60 496Q60 576 106 623T225 670Q298 670 344 624T390 496Q390 445 369 405T310 343T225 321Q153 321 107 367ZM258 352T268 392T279 496Q279
556 269 597T226 639Q193 639 183 598T172 496Q172 436 183 394T226 352Q258 352 268 392ZM564 -10T518 36T471 164Q471 245 517 292T636 339Q709 339 755 292T801 164Q801 113 780 74T721 12T636 -10Q564 -10 518 36ZM668 21T678 61T689 164Q689 225 679 266T636
308Q603 308 593 267T582 164Q582 104 592 63T636 21Q668 21 678 61Z" />
<glyph unicode="&amp;" glyph-name="ampersand" horiz-adv-x="775" d="M614 96T644 70T694 35T742 27V0H641Q570 0 533 12T468 49Q387 -11 266 -11Q160 -11 93 31T25 159Q25 207 46 241T102 297T189 344Q152 386 133 425T113 507Q113 583 172 627T323 672Q413
672 457 640T501 546Q501 514 486 490T437 442T344 386L534 181Q569 239 569 293Q569 314 563 324T541 337T493 341V366H681V341Q652 341 640 338T623 327T613 296Q595 216 559 154Q614 96 644 70ZM283 643T262 619T240 555Q240 522 259 491T320 412Q366 442 382
470T398 540Q398 643 321 643Q283 643 262 619ZM170 122T208 86T313 49Q379 49 436 83L218 313Q170 272 170 194Q170 122 208 86Z" />
<glyph unicode="&apos;" glyph-name="quotesingle" horiz-adv-x="231" d="M101 419T95 426T87 444L66 582Q63 602 63 623Q63 645 75 660T115 675Q144 675 156 660T168 624Q168 602 165 582L145 444Q140 419 115 419Q101 419 95 426Z" />
<glyph unicode="(" glyph-name="parenleft" horiz-adv-x="373" d="M254 -122T194 -68T105 75T76 266Q76 369 105 457T194 600T343 657L346 632Q279 612 243 508T206 267Q206 130 243 26T346 -101L343 -124Q254 -122 194 -68Z" />
<glyph unicode=")" glyph-name="parenright" horiz-adv-x="372" d="M27 -101Q93 -79 130 25T167 267Q167 403 131 507T27 632L30 657Q119 655 179 600T268 457T297 266Q297 163 268 75T179 -67T30 -124L27 -101Z" />
<glyph unicode="*" glyph-name="asterisk" horiz-adv-x="375" d="M163 305T150 313T137 337Q137 344 138 347L167 446L163 448L91 374Q81 364 70 364Q60 364 50 372T30 396Q20 413 20 429Q20 441 26 449T43 459L142 485V488L42 513Q20 519 20 542Q20 558 30 577Q50
607 70 607Q82 607 91 598L164 524L167 525L138 625Q137 628 137 635Q137 650 150 658T187 667Q211 667 224 659T237 635Q237 628 236 625L207 524L209 522L283 598Q293 608 304 608Q325 608 343 577Q355 558 355 542Q355 520 332 513L229 488V485L332 458Q343
456 349 449T355 430Q355 416 343 396Q326 365 304 365Q292 365 282 374L210 449L207 448L236 347Q237 344 237 337Q237 322 224 314T187 305Q163 305 150 313Z" />
<glyph unicode="+" glyph-name="plus" horiz-adv-x="524" d="M108 194L30 251L142 279L220 391L276 469L304 357L417 279L495 222L382 194L304 82L248 4L220 116L108 194Z" />
<glyph unicode="," glyph-name="comma" horiz-adv-x="279" d="M82 -88Q106 -84 129 -69T153 -32Q153 -21 148 -17T130 -9Q66 9 66 66Q66 99 86 121T142 144Q175 144 198 121T221 47Q221 -17 185 -63T86 -119L82 -88Z" />
<glyph unicode="-" glyph-name="hyphen" horiz-adv-x="391" d="M60 315H331V222H60V315Z" />
<glyph unicode="." glyph-name="period" horiz-adv-x="297" d="M117 -9T95 13T72 67Q72 98 94 121T148 144Q180 144 202 122T225 67Q225 35 203 13T148 -9Q117 -9 95 13Z" />
<glyph unicode="/" glyph-name="slash" horiz-adv-x="362" d="M262 671H356L100 -12H6L262 671Z" />
<glyph unicode="0" glyph-name="zero" horiz-adv-x="592" d="M173 -11T110 83T47 330Q47 482 110 576T296 671Q420 671 482 577T545 330Q545 177 483 83T296 -11Q173 -11 110 83ZM333 24T353 52T383 146T393 329Q393 445 384 511T354 606T296 636Q260 636 239
607T209 511T200 329Q200 212 209 146T239 52T296 24Q333 24 353 52Z" />
<glyph unicode="1" glyph-name="one" horiz-adv-x="492" d="M107 35H174Q190 35 195 43T200 75V558L175 546Q101 511 67 500V549Q106 564 154 596T239 660H342V75Q342 52 348 44T371 35H440V0H107V35Z" />
<glyph unicode="2" glyph-name="two" horiz-adv-x="571" d="M42 10Q42 64 64 109T120 188T208 269Q255 309 284 339T332 411T351 506Q351 566 327 601T259 637Q234 637 218 626T202 596Q202 585 209 573Q218 553 218 535Q218 503 199 483T145 462Q111 462 91 483T71
541Q71 608 132 640T283 672Q386 672 446 628T506 495Q506 445 486 408T425 340T312 267Q223 214 178 178T122 108H403Q442 108 459 122T486 173H519L489 0H42V10Z" />
<glyph unicode="3" glyph-name="three" horiz-adv-x="560" d="M149 -11T93 19T37 104Q37 139 58 160T112 181Q143 181 162 162T182 114Q182 101 176 85Q171 72 171 63Q171 45 186 35T229 25Q283 25 311 67T340 188Q340 340 227 340L166 337V381L221 379Q279 379
298 419T317 510Q317 635 236 635Q212 635 197 626T181 600Q181 592 187 580Q190 574 193 566T196 548Q196 520 177 502T126 484Q93 484 72 503T51 556Q51 609 108 640T249 671Q343 671 405 631T469 518Q469 458 424 418T301 365V362Q348 359 391 339T464 278T493
179Q493 91 427 40T240 -11Q149 -11 93 19Z" />
<glyph unicode="4" glyph-name="four" horiz-adv-x="560" d="M218 35H269Q281 35 287 42T293 69V172H27V238Q136 409 329 668H431V262H528V172H431V69Q431 49 436 42T456 35H505V0H218V35ZM293 262V546H291L256 497Q137 329 97 262H293Z" />
<glyph unicode="5" glyph-name="five" horiz-adv-x="554" d="M152 -11T100 20T47 104Q47 137 67 157T119 178Q149 178 170 160T191 114Q191 99 181 81Q180 79 177 73T174 59Q174 43 191 34T232 25Q289 25 316 71T344 202Q344 288 317 327T234 367Q197 367 169
350T113 298H76L111 660H401Q425 660 434 665T448 685H481L451 556H139L118 359L120 358Q148 383 188 396T272 409Q339 409 390 383T469 311T497 207Q497 146 467 97T377 18T237 -11Q152 -11 100 20Z" />
<glyph unicode="6" glyph-name="six" horiz-adv-x="600" d="M179 -12T113 64T47 283Q47 410 98 500T244 638T464 686V652Q399 652 340 618T241 514T200 346L202 345Q230 381 265 401T351 421Q409 421 453 395T523 321T548 211Q548 145 520 95T436 16T304 -12Q179
-12 113 64ZM352 25T376 70T401 191Q401 271 374 316T299 361Q253 361 227 321T201 203Q201 128 227 77T304 25Q352 25 376 70Z" />
<glyph unicode="7" glyph-name="seven" horiz-adv-x="547" d="M172 -12T152 11T131 77Q131 136 170 208T280 376Q340 455 412 554H146Q115 554 99 546T72 514L65 496H32L49 660H492V585Q470 557 435 506T372 412Q325 338 309 274T292 151L293 112Q294 102 294
85Q294 -12 212 -12Q172 -12 152 11Z" />
<glyph unicode="8" glyph-name="eight" horiz-adv-x="560" d="M208 -11T158 6T75 60T42 153Q42 210 75 250T169 320Q119 350 92 389T64 482Q64 539 95 582T177 648T288 671Q335 671 381 657T458 610T489 529Q489 477 456 443T366 381Q435 345 471 301T508 190Q508
127 474 82T384 13T263 -11Q208 -11 158 6ZM365 420T381 455T398 525Q398 573 366 604T285 636Q240 636 210 610T180 543Q180 514 197 491T241 452T312 411L334 399Q365 420 381 455ZM319 25T355 54T391 131Q391 161 374 184T330 225T255 270Q219 290 201 301Q168
274 152 242T135 169Q135 106 169 66T266 25Q319 25 355 54Z" />
<glyph unicode="9" glyph-name="nine" horiz-adv-x="600" d="M136 5Q201 5 260 40T359 144T400 313H398Q370 278 335 258T251 238Q193 238 148 264T77 337T52 448Q52 514 80 564T164 643T296 671Q420 671 486 595T553 375Q553 249 502 158T356 20T136 -28V5ZM347
298T373 338T399 456Q399 531 373 582T296 634Q248 634 224 589T199 468Q199 388 226 343T301 298Q347 298 373 338Z" />
<glyph unicode=":" glyph-name="colon" horiz-adv-x="297" d="M117 267T95 289T72 344Q72 375 94 397T148 420Q180 420 202 398T225 344Q225 312 203 290T148 267Q117 267 95 289ZM117 -9T95 13T72 67Q72 98 94 121T148 144Q180 144 202 122T225 67Q225 35 203
13T148 -9Q117 -9 95 13Z" />
<glyph unicode=";" glyph-name="semicolon" horiz-adv-x="285" d="M111 267T89 289T66 343Q66 374 88 397T142 420Q174 420 196 398T219 343Q219 312 197 290T142 267Q111 267 89 289ZM82 -88Q106 -84 129 -69T153 -32Q153 -21 148 -17T130 -9Q66 9 66 66Q66 99
86 121T142 144Q175 144 198 121T221 47Q221 -17 185 -63T86 -119L82 -88Z" />
<glyph unicode="&lt;" glyph-name="less" horiz-adv-x="564" d="M327 337L312 332L327 365V337ZM312 332L311 330L308 331L312 332ZM514 212L366 90L233 145V162L311 330L514 212Z" />
<glyph unicode="=" glyph-name="equal" horiz-adv-x="528" d="M30 376H499V291H30V376ZM30 178H499V93H30V178Z" />
<glyph unicode="&gt;" glyph-name="greater" horiz-adv-x="564" d="M238 365L253 332L238 337V365ZM256 331L254 330L253 332L256 331ZM331 162V145L199 90L50 212L254 330L331 162Z" />
<glyph unicode="?" glyph-name="question" horiz-adv-x="530" d="M214 230Q214 292 229 329T274 409Q299 445 311 473T324 546Q324 597 306 621T258 645Q232 645 213 632T194 597Q194 589 197 584T206 571Q213 562 217 554T221 532Q221 502 201 483T146 464Q110
464 90 486T69 545Q69 610 132 640T276 671Q355 671 413 639T471 534Q471 499 457 472T421 426T362 381Q326 356 305 337T269 292T254 230V201H214V230ZM206 -9T184 13T161 67Q161 99 184 121T238 144Q269 144 292 122T315 68Q315 36 293 14T238 -9Q206 -9 184
13Z" />
<glyph unicode="@" glyph-name="at" horiz-adv-x="798" d="M295 -13T216 20T87 123T37 292Q37 403 95 489T247 623T444 670Q535 670 607 633T720 532T761 395Q761 334 731 279T648 190T529 156Q451 156 451 212Q451 224 454 237L466 286L463 288Q434 228 390 192T295
156Q257 156 232 180T207 252Q207 303 236 363T323 467T460 510Q475 510 484 508T501 502T514 496L517 506H618L551 249Q545 225 545 219Q545 200 569 200Q601 200 626 230T666 305T681 393Q681 462 650 513T564 592T443 620Q358 620 291 574T185 451T147 291Q147
228 171 170T255 73T409 34Q453 34 497 42T576 65L586 36Q548 11 493 -1T386 -13Q295 -13 216 20ZM375 203T412 259T472 374L506 467Q492 478 472 478Q431 478 397 437T344 339T324 246Q324 227 330 215T348 203Q375 203 412 259Z" />
<glyph unicode="A" glyph-name="A" horiz-adv-x="709" d="M627 60T634 50T655 37T696 33V0H396V33H443Q470 33 470 56Q470 65 467 75L410 234H204L147 72Q144 62 144 54Q144 43 150 38T173 33H215V0H7V33Q48 33 65 43T95 88L315 660H410L618 83Q627 60 634 50ZM397
271L308 518H305L217 271H397Z" />
<glyph unicode="B" glyph-name="B" horiz-adv-x="650" d="M37 33Q70 33 85 37T105 53T110 89V569Q110 596 105 607T86 623T37 627V660H348Q591 660 591 508Q591 448 554 410T444 357V356Q619 326 619 177Q619 0 359 0H37V33ZM312 371Q376 371 409 404T443 499Q443
622 313 622Q280 622 271 615T262 582V371H312ZM460 38T460 176Q460 250 422 291T314 332H262V103Q262 66 277 52T332 38Q460 38 460 176Z" />
<glyph unicode="C" glyph-name="C" horiz-adv-x="665" d="M218 -12T129 74T39 323Q39 490 130 581T384 672Q430 672 462 665T523 645Q546 635 557 635Q576 635 583 650L587 660H614L624 471H591Q577 544 529 590T403 636Q288 636 245 541T202 330Q202 193 252
109T403 24Q484 24 533 66T604 171L633 158Q608 84 548 36T378 -12Q218 -12 129 74Z" />
<glyph unicode="D" glyph-name="D" horiz-adv-x="754" d="M37 33Q76 33 92 37T112 51T116 89V570Q116 597 111 608T91 623T37 627V660H365Q538 658 626 581T714 339Q714 160 618 80T332 0H37V33ZM447 38T498 110T550 336Q550 622 343 622Q299 622 284 616T268
585V96Q268 60 282 49T337 38Q447 38 498 110Z" />
<glyph unicode="E" glyph-name="E" horiz-adv-x="611" d="M37 33Q71 33 86 37T105 52T110 89V570Q110 596 105 607T86 623T37 627V660H556V499H521Q509 550 493 576T449 612T372 622H299Q277 622 270 615T262 588V367H373Q403 367 418 374T441 400T454 456H484V234H454Q449
272 442 290T419 315T373 323H262V104Q262 73 268 61T297 43T371 38Q425 38 458 50T513 93T547 178H582L570 0H37V33Z" />
<glyph unicode="F" glyph-name="F" horiz-adv-x="569" d="M37 33Q71 33 86 37T105 52T110 89V570Q110 596 105 607T86 623T37 627V660H543V499H508Q495 550 479 576T435 612T358 622H299Q278 622 270 615T262 588V355H368Q399 355 414 362T437 388T450 444H480V221H450Q445
260 438 278T415 303T368 311H262V89Q262 64 267 53T288 38T341 33V0H37V33Z" />
<glyph unicode="G" glyph-name="G" horiz-adv-x="717" d="M218 -12T129 74T39 322Q39 431 80 510T198 630T381 672Q430 672 461 665T523 645Q546 635 558 635Q576 635 583 650L587 660H617L624 470H591Q577 543 529 589T405 636Q288 636 245 541T202 328Q202 193
253 109T405 24Q448 24 492 45V209Q492 246 481 256T436 267H420V299H702V267H683Q660 267 651 255T641 209V0H611Q605 12 597 17T574 23Q565 23 536 14Q498 2 463 -5T375 -12Q218 -12 129 74Z" />
<glyph unicode="H" glyph-name="H" horiz-adv-x="785" d="M37 33Q73 33 87 37T105 52T109 89V569Q109 596 105 607T87 622T37 627V660H333V627Q298 627 283 623T265 607T261 569V365H523V569Q523 596 519 607T501 622T451 627V660H747V627Q712 627 697 623T679
607T675 569V89Q675 63 679 52T698 37T747 33V0H451V33Q487 33 501 37T519 52T523 89V325H261V89Q261 63 265 52T283 37T333 33V0H37V33Z" />
<glyph unicode="I" glyph-name="I" horiz-adv-x="372" d="M37 33Q72 33 86 37T105 52T110 89V569Q110 596 105 607T86 623T37 627V660H334V627Q300 627 286 623T267 608T262 569V89Q262 62 266 51T285 37T334 33V0H37V33Z" />
<glyph unicode="J" glyph-name="J" horiz-adv-x="399" d="M0 -211T-34 -186T-68 -119Q-68 -81 -48 -62T3 -42Q29 -42 49 -60T70 -108Q70 -129 61 -144T51 -164Q51 -168 56 -171T72 -174Q110 -174 127 -144T144 -50V569Q144 596 140 607T121 623T72 627V660H369V627Q334
627 320 623T301 607T296 569V84Q296 -19 276 -82T206 -178T68 -211Q0 -211 -34 -186Z" />
<glyph unicode="K" glyph-name="K" horiz-adv-x="724" d="M609 112T629 86T670 47T719 33V0H415V33H441Q465 33 465 48Q465 61 449 86L292 318L262 289V89Q262 62 266 52T284 37T334 33V0H37V33Q72 33 86 37T105 52T110 89V569Q110 596 106 607T87 623T37 627V660H334V627Q300
627 286 623T267 608T262 569V341L494 582Q508 598 508 610Q508 618 502 622T484 627H454V660H668V627Q625 627 590 603T494 518L396 421L564 178Q609 112 629 86Z" />
<glyph unicode="L" glyph-name="L" horiz-adv-x="594" d="M37 33Q72 33 86 37T105 52T110 89V569Q110 596 106 607T87 623T37 627V660H336V627Q301 627 286 623T267 608T262 569V101Q262 71 268 59T290 42T345 38Q428 38 470 68T530 177H565L553 0H37V33Z" />
<glyph unicode="M" glyph-name="M" horiz-adv-x="866" d="M27 33H47Q81 33 90 43T100 86V570Q100 596 96 607T76 622T26 627V660H257L432 210H434L607 660H828V627Q794 626 780 622T761 607T756 570V89Q756 64 760 53T780 37T828 33V0H537V33Q570 33 584 37T602
53T606 89V552H604L401 14H351L144 546H142V86Q142 63 146 52T161 37T197 33H227V0H27V33Z" />
<glyph unicode="N" glyph-name="N" horiz-adv-x="709" d="M150 537H148V85Q148 57 159 45T198 33H233V0H33V33H59Q83 33 94 45T106 85V570Q106 596 102 607T82 622T32 627V660H251L561 181H564V579Q564 627 513 627H478V660H676V627H652Q606 627 606 579V-7H506L150 537Z" />
<glyph unicode="O" glyph-name="O" horiz-adv-x="739" d="M207 -11T123 79T39 331Q39 493 123 582T369 672Q531 672 615 583T700 331Q700 169 616 79T369 -11Q207 -11 123 79ZM458 25T497 101T537 331Q537 636 370 636Q282 636 243 561T203 331Q203 177 242 101T370
25Q458 25 497 101Z" />
<glyph unicode="P" glyph-name="P" horiz-adv-x="613" d="M37 33Q72 33 86 37T105 52T110 89V570Q110 596 105 607T86 623T37 627V660H336Q469 660 531 607T594 470Q594 373 523 318T301 262H262V89Q262 63 267 52T287 37T339 33V0H37V33ZM303 302Q365 302 401
344T438 467Q438 543 405 582T306 622Q278 622 270 615T262 587V302H303Z" />
<glyph unicode="Q" glyph-name="Q" horiz-adv-x="739" d="M700 190T636 104T448 -5Q450 -55 468 -83T517 -112Q551 -112 585 -87L603 -120Q583 -138 550 -154T470 -171Q385 -171 340 -125T292 -5Q168 15 104 102T39 331Q39 493 123 582T369 672Q531 672 615 583T700
331Q700 190 636 104ZM458 25T497 101T537 331Q537 636 370 636Q282 636 243 561T203 331Q203 177 242 101T370 25Q458 25 497 101Z" />
<glyph unicode="R" glyph-name="R" horiz-adv-x="660" d="M37 33Q72 33 86 37T105 52T110 89V570Q110 596 105 607T86 623T37 627V660H345Q588 660 588 498Q588 427 543 386T424 332V330Q486 318 512 285T552 181L561 139Q573 82 591 58T652 33V0H468Q454 11 442
36T423 92L393 230Q385 268 366 287T309 306H262V89Q262 64 266 53T285 37T332 33V0H37V33ZM303 346Q371 346 403 379T435 485Q435 555 405 588T308 622Q280 622 271 615T262 585V346H303Z" />
<glyph unicode="S" glyph-name="S" horiz-adv-x="527" d="M36 191H71Q79 152 103 113T167 47T255 21Q308 21 343 49T379 133Q379 177 352 205T269 254L218 272Q132 304 88 350T43 474Q43 533 70 578T148 647T264 672Q292 672 310 668T358 655Q383 645 398 645Q409
645 414 649T422 664H450L460 489H426Q411 560 369 600T266 640Q215 640 182 612T148 539Q148 506 167 484T210 450T273 422L338 398Q412 370 452 324T493 203Q493 137 464 89T381 14T258 -12Q224 -12 198 -7T144 9Q117 18 106 18Q95 18 88 13T77 0H49L36 191Z"
/>
<glyph unicode="T" glyph-name="T" horiz-adv-x="623" d="M158 33Q196 33 211 36T231 50T236 88V625H189Q130 625 98 592T55 485H20L21 660H603V485H569Q554 564 523 594T430 625H388V88Q388 62 393 51T413 37T466 33V0H158V33Z" />
<glyph unicode="U" glyph-name="U" horiz-adv-x="765" d="M236 -12T171 44T105 224V570Q105 597 101 608T83 623T33 627V660H330V627Q295 627 281 623T262 608T257 570V219Q257 123 287 77T384 31Q452 31 482 77T513 219V570Q513 597 509 608T490 623T440 627V660H735V627Q700
627 686 623T667 608T663 570V224Q663 101 596 45T382 -12Q236 -12 171 44Z" />
<glyph unicode="V" glyph-name="V" horiz-adv-x="674" d="M87 577Q77 607 62 617T11 627V660H311V627H268Q239 627 239 604Q239 595 243 584L394 150H397L539 580Q544 595 544 604Q544 627 515 627H470V660H669V627Q637 627 620 614T590 566L385 0H290L87 577Z" />
<glyph unicode="W" glyph-name="W" horiz-adv-x="932" d="M81 577Q72 606 59 616T11 627V660H300V627H260Q244 627 238 623T231 606Q231 598 234 586L340 193H343L474 646H574L706 197H709L806 580Q810 593 810 605Q810 616 803 621T777 627H733V660H927V627Q902
627 888 621T865 597T846 544L698 0H614L469 483H467L323 0H243L81 577Z" />
<glyph unicode="X" glyph-name="X" horiz-adv-x="684" d="M589 62T610 48T673 33V0H348V33H388Q414 33 414 52Q414 62 403 79L286 274H285L158 74Q152 64 152 54Q152 33 178 33H220V0H12V33Q50 33 68 44T108 87L264 309L102 576Q81 610 67 618T18 627V660H320V627H290Q277
627 271 622T264 609Q264 599 271 588L369 420H373L469 577Q479 594 479 605Q479 627 452 627H425V660H625V627Q586 627 566 616T519 568L392 384L561 108Q589 62 610 48Z" />
<glyph unicode="Y" glyph-name="Y" horiz-adv-x="652" d="M647 660V627Q610 627 593 614T556 563L405 265V90Q405 64 410 53T432 37T485 33V0H178V33Q215 33 230 37T250 52T255 90V254L94 577Q79 607 64 617T11 627V660H323V627H280Q255 627 255 607Q255 594 263
577L386 317H388L505 568Q513 587 513 598Q513 612 504 619T481 627H444V660H647Z" />
<glyph unicode="Z" glyph-name="Z" horiz-adv-x="596" d="M20 33L384 625H259Q200 625 166 612T115 568T90 484H55V660H561L560 628L194 35H331Q402 36 439 47T500 89T541 187H576L564 0H20V33Z" />
<glyph unicode="[" glyph-name="bracketleft" horiz-adv-x="317" d="M100 660H296V628H209V-97H296V-130H100V660Z" />
<glyph unicode="\" glyph-name="backslash" horiz-adv-x="368" d="M6 671H101L362 -12H266L6 671Z" />
<glyph unicode="]" glyph-name="bracketright" horiz-adv-x="317" d="M21 -97H108V628H21V660H217V-130H21V-97Z" />
<glyph unicode="^" glyph-name="asciicircum" horiz-adv-x="560" d="M240 660H322L494 308H407L281 572L155 308H68L240 660Z" />
<glyph unicode="_" glyph-name="underscore" horiz-adv-x="547" d="M40 -70H507V-117H40V-70Z" />
<glyph unicode="`" glyph-name="grave" horiz-adv-x="378" d="M114 658Q99 676 95 685T90 706Q90 724 104 737T137 750Q173 750 190 714L268 545H218L114 658Z" />
<glyph unicode="a" glyph-name="a" horiz-adv-x="527" d="M527 21Q477 -11 407 -11Q369 -11 346 2T316 38Q254 -11 175 -11Q109 -11 73 16T37 95Q37 162 110 209T313 280V355Q312 399 296 419T238 440Q214 440 197 433T180 414Q180 406 190 394Q198 384 201 377T205
357Q205 331 186 313T136 294Q104 294 86 312T67 356Q67 387 90 415T164 461T289 480Q375 480 414 442T454 320V100Q454 64 460 52T482 40Q495 40 504 44T516 50L527 21ZM178 82T193 66T242 49Q274 49 313 78V239Q243 220 211 191T178 118Q178 82 193 66Z" />
<glyph unicode="b" glyph-name="b" horiz-adv-x="595" d="M458 481T508 422T559 247Q559 120 495 54T316 -12Q272 -12 237 -2T162 30L134 0H85V592Q85 617 79 624T51 632H23V666L183 690H227V431H228Q287 481 367 481Q458 481 508 422ZM361 24T385 71T410 228Q410
425 308 425Q286 425 267 413T227 380V62Q265 24 307 24Q361 24 385 71Z" />
<glyph unicode="c" glyph-name="c" horiz-adv-x="496" d="M155 -11T96 50T36 229Q36 353 99 417T276 481Q363 481 410 446T457 358Q457 326 440 308T389 289Q359 289 341 304T323 348Q323 363 332 383Q339 395 339 406Q339 423 324 434T280 445Q232 445 209 406T185
260Q185 145 213 98T306 51Q359 51 386 75T436 144L467 128Q443 64 399 27T265 -11Q155 -11 96 50Z" />
<glyph unicode="d" glyph-name="d" horiz-adv-x="591" d="M572 33V0H379L372 44Q306 -11 225 -11Q135 -11 85 50T35 224Q35 350 98 415T276 481Q323 481 362 468H367V595Q367 616 361 624T339 632H305V665L465 690H508V83Q508 52 516 43T549 33H572ZM309 46T327
58T367 93V415Q328 445 288 445Q234 445 208 397T182 252Q182 149 208 98T285 46Q309 46 327 58Z" />
<glyph unicode="e" glyph-name="e" horiz-adv-x="520" d="M484 231H185Q188 136 215 94T305 51Q399 51 440 144L474 126Q448 64 402 27T261 -11Q150 -11 93 50T36 234Q36 357 94 419T264 481Q484 481 484 240V231ZM335 267Q335 332 330 369T308 426T263 445Q224
445 205 406T185 267H335Z" />
<glyph unicode="f" glyph-name="f" horiz-adv-x="337" d="M27 33Q56 33 69 37T86 51T91 83V434H27V470H91V523Q91 604 143 654T283 704Q347 704 386 677T425 603Q425 574 409 557T362 539Q333 539 316 555T299 597Q299 614 304 622T311 632Q320 643 320 652Q320
663 312 669T289 676Q233 676 233 571V470H331V434H233V83Q233 60 239 50T262 37T317 33V0H27V33Z" />
<glyph unicode="g" glyph-name="g" horiz-adv-x="570" d="M520 481T539 466T558 423Q558 402 547 389T514 376Q496 376 486 384T476 407Q476 414 477 420T479 430Q479 434 475 437T463 440Q441 440 423 416Q457 379 457 321Q457 244 398 205T245 166Q209 166 179
172Q148 156 148 138Q148 126 163 117T214 108H317Q407 108 452 71T497 -36Q497 -123 429 -167T237 -212Q138 -212 80 -183T21 -94Q21 -26 107 8Q87 21 76 41T64 84Q64 145 139 182Q91 199 64 234T37 320Q37 399 97 439T247 480Q343 480 400 438Q431 481 487 481Q520
481 539 466ZM283 198T300 228T317 327Q317 393 303 420T250 448Q211 448 196 420T181 321Q181 253 195 226T247 198Q283 198 300 228ZM407 -44T373 -27T265 -9H164H162Q124 -37 124 -85Q124 -129 158 -154T260 -180Q326 -180 366 -156T407 -85Q407 -44 373 -27Z"
/>
<glyph unicode="h" glyph-name="h" horiz-adv-x="620" d="M535 61T539 51T555 37T596 33V0H341V33Q365 33 375 36T389 49T393 78V318Q393 371 375 395T319 420Q294 420 274 409T229 371V81Q229 60 233 51T248 37T284 33V0H23V33Q52 33 65 37T82 51T87 83V594Q87
617 82 624T58 632H25V665L185 690H229V413H231Q303 481 390 481Q459 481 497 442T535 324V83Q535 61 539 51Z" />
<glyph unicode="i" glyph-name="i" horiz-adv-x="313" d="M122 531T98 554T73 610Q73 643 97 666T155 690Q189 690 213 667T238 610Q238 577 213 554T155 531Q122 531 98 554ZM24 33Q53 33 66 37T83 51T88 83V379Q88 402 83 409T59 417H26V450L186 475H230V83Q230
61 234 51T250 37T288 33V0H24V33Z" />
<glyph unicode="j" glyph-name="j" horiz-adv-x="266" d="M90 530T66 553T41 609Q41 642 65 665T124 689Q157 689 181 666T206 610Q206 577 181 554T123 530Q90 530 66 553ZM-31 -212T-67 -190T-104 -125Q-104 -98 -87 -80T-44 -61Q-19 -61 -2 -74T17 -113Q17
-123 14 -129T6 -143Q5 -144 2 -149T-2 -162Q-2 -171 6 -176T22 -181Q38 -181 45 -173T54 -143T57 -74V379Q57 402 52 409T28 417H-5V450L154 475H199V21Q199 -87 154 -149T20 -212Q-31 -212 -67 -190Z" />
<glyph unicode="k" glyph-name="k" horiz-adv-x="582" d="M581 33V0H330V33H344Q362 33 362 43Q362 49 353 63T341 81L248 221L229 201V83Q229 61 232 51T246 37T283 33V0H23V33Q53 33 66 37T83 50T87 83V593Q87 617 82 624T58 632H25V665L186 690H229V249L346
368Q380 403 380 423Q380 438 360 438H335V471L541 470V437H533Q493 437 460 416T376 346L342 312L478 122Q512 74 533 54T571 33H581Z" />
<glyph unicode="l" glyph-name="l" horiz-adv-x="311" d="M23 33Q53 33 66 37T83 50T87 83V593Q87 617 82 624T58 632H25V665L186 690H229V83Q229 61 233 51T249 37T287 33V0H23V33Z" />
<glyph unicode="m" glyph-name="m" horiz-adv-x="923" d="M839 61T843 51T859 37T899 33V0H644V33Q668 33 679 36T693 48T697 78V318Q697 420 621 420Q564 420 535 355V83Q535 61 538 51T553 37T589 33V0H341V33Q365 33 375 36T389 48T393 78V318Q393 371 375
395T319 420Q294 420 274 409T231 373V81Q231 59 235 49T251 36T286 33V0H25V33Q54 33 67 37T84 51T89 83V379Q89 402 84 409T60 417H27V450L184 475H227V411H229Q299 481 390 481Q442 481 477 459T527 402Q552 441 593 461T688 481Q760 481 799 443T839 324V83Q839
61 843 51Z" />
<glyph unicode="n" glyph-name="n" horiz-adv-x="623" d="M538 61T542 51T558 37T599 33V0H344V33Q368 33 378 36T392 48T396 78V318Q396 420 323 420Q297 420 277 409T231 372V81Q231 59 235 49T251 36T286 33V0H25V33Q54 33 67 37T84 51T89 83V379Q89 402 84
409T60 417H27V450L184 475H227V409H230Q265 442 303 461T393 481Q462 481 500 442T538 324V83Q538 61 542 51Z" />
<glyph unicode="o" glyph-name="o" horiz-adv-x="566" d="M157 -11T96 49T35 234Q35 360 96 421T285 482Q410 482 470 422T530 236Q530 109 470 49T283 -11Q157 -11 96 49ZM335 24T358 72T381 222Q381 340 358 393T282 446Q230 446 207 394T184 233Q184 122 207
73T284 24Q335 24 358 72Z" />
<glyph unicode="p" glyph-name="p" horiz-adv-x="599" d="M463 481T513 422T564 248Q564 122 500 55T318 -12Q271 -12 228 4V-117Q228 -139 232 -149T250 -163T293 -167V-200H23V-167Q53 -167 66 -164T83 -150T87 -117V383Q87 404 81 410T53 417H25V451L181 475H224V422H225Q286
481 372 481Q463 481 513 422ZM365 24T390 72T415 229Q415 323 390 374T314 425Q270 425 228 378V66Q266 24 310 24Q365 24 390 72Z" />
<glyph unicode="q" glyph-name="q" horiz-adv-x="586" d="M513 -138T518 -148T536 -163T577 -167V-200H304V-167Q335 -167 349 -163T367 -149T372 -117V42H369Q307 -11 226 -11Q136 -11 86 51T35 224Q35 348 98 414T279 481Q324 481 352 471T412 440L471 475H513V-117Q513
-138 518 -148ZM310 46T329 59T372 97V410Q331 445 288 445Q182 445 182 250Q182 149 208 98T285 46Q310 46 329 59Z" />
<glyph unicode="r" glyph-name="r" horiz-adv-x="454" d="M397 480T420 456T444 393Q444 360 426 338T372 316Q342 316 324 332T306 376Q306 396 314 406T323 420Q323 423 320 425T312 428Q295 428 277 404T245 342T232 271H231V83Q231 61 236 51T257 37T308 33V0H25V33Q54
33 67 37T84 51T89 83V379Q89 402 84 409T60 417H27V450L184 475H227V383H230Q276 480 355 480Q397 480 420 456Z" />
<glyph unicode="s" glyph-name="s" horiz-adv-x="447" d="M176 -12T133 5Q109 13 99 13Q83 13 72 -1H48L39 162H71Q83 98 122 61T218 24Q257 24 282 42T308 97Q308 125 290 141T226 174L173 189Q103 213 73 246T43 330Q43 400 91 440T223 481Q259 481 280 475T304
468Q323 461 334 461Q345 461 349 465T356 479H381L388 333H358Q344 386 311 416T232 446Q196 446 174 429T151 385Q151 358 172 343T231 314L277 300Q350 276 383 242T416 151Q416 78 365 33T224 -12Q176 -12 133 5Z" />
<glyph unicode="t" glyph-name="t" horiz-adv-x="338" d="M137 -12T104 23T70 135V434H10V467Q68 477 114 528T179 647H212V470H310V434H212V141Q212 93 225 71T268 48Q283 48 296 53T324 67L341 39Q337 36 317 22T266 -2T202 -12Q137 -12 104 23Z" />
<glyph unicode="u" glyph-name="u" horiz-adv-x="617" d="M532 54T536 46T552 36T592 33V0H394V64H391Q318 -12 226 -12Q157 -12 120 26T83 143V381Q83 404 78 411T54 419H21V452L180 475H225V155Q225 100 244 75T299 50Q322 50 343 62T390 100V381Q390 404 385
411T361 419H328V452L487 475H532V72Q532 54 536 46Z" />
<glyph unicode="v" glyph-name="v" horiz-adv-x="523" d="M55 400Q46 422 35 429T-4 437V470H252V437H213Q194 437 194 422Q194 415 196 410L302 140H304L409 408Q411 416 411 420Q411 437 391 437H354V470H516V437Q490 437 477 429T455 396L289 0H216L55 400Z" />
<glyph unicode="w" glyph-name="w" horiz-adv-x="739" d="M49 400Q42 422 31 429T-4 437V470H239V437H211Q190 437 190 419Q190 413 193 402L260 161H262L362 467H455L552 163H554L621 404Q623 410 623 418Q623 429 617 433T598 437H572V470H731V437Q703 437 690
428T670 396L544 0H476L365 325H360L247 0H179L49 400Z" />
<glyph unicode="x" glyph-name="x" horiz-adv-x="554" d="M483 52T499 43T544 33V0H272V33H295Q315 33 315 47Q315 56 308 66L232 182L154 70Q147 60 147 50Q147 42 152 38T168 33H190V0H10V33Q41 33 62 42T103 77L211 214L86 406Q74 424 60 430T17 437V470H276V437H258Q239
437 239 424Q239 416 248 402L308 313L374 411Q379 419 379 426Q379 437 365 437H342V470H503V437Q473 437 454 430T421 405L330 281L467 77Q483 52 499 43Z" />
<glyph unicode="y" glyph-name="y" horiz-adv-x="515" d="M507 470V437Q481 437 468 427T440 382L289 12Q275 -22 269 -39Q244 -101 227 -134T182 -189T114 -211Q73 -211 44 -185T14 -122Q14 -94 32 -74T80 -54Q108 -54 124 -71T141 -114Q141 -131 133 -142T124
-158Q124 -165 129 -169T142 -173Q178 -173 214 -77L235 -21L63 396Q55 416 49 424T31 434T-6 437V470H260V437H229Q209 437 209 419Q209 416 213 402L303 160H305L399 407Q401 415 401 419Q401 437 381 437H348V470H507Z" />
<glyph unicode="z" glyph-name="z" horiz-adv-x="469" d="M22 56L286 439H206Q148 439 115 415T70 325H40L51 470H434V427L170 32H258Q313 32 342 43T388 81T420 165H450L439 0H22V56Z" />
<glyph unicode="{" glyph-name="braceleft" horiz-adv-x="316" d="M171 -130T140 -94T109 -3V178Q109 251 40 251V283Q109 283 109 348V533Q109 591 140 625T241 660H286V627Q246 627 234 609T221 554V372Q221 343 217 326T193 294T131 269V264Q173 255 192 241T216
211T221 166V-21Q221 -61 233 -79T286 -97V-130H244Q171 -130 140 -94Z" />
<glyph unicode="|" glyph-name="bar" horiz-adv-x="266" d="M91 729H175V-198H91V729Z" />
<glyph unicode="}" glyph-name="braceright" horiz-adv-x="316" d="M30 -97Q71 -97 83 -79T96 -21V166Q96 194 101 210T125 241T186 264V269Q144 279 125 294T101 326T96 372V554Q96 590 84 608T30 627V660H75Q145 660 176 626T208 533V348Q208 283 276 283V251Q242
251 225 234T208 178V-3Q208 -58 177 -94T72 -130H30V-97Z" />
<glyph unicode="~" glyph-name="asciitilde" horiz-adv-x="515" d="M44 227Q86 307 159 307Q182 307 207 299T266 275Q278 269 285 267Q311 255 328 249T358 242Q382 242 400 260T439 310L472 242Q449 206 423 185T357 163Q314 163 256 194Q225 211 202 219T156
228Q130 228 112 209T77 159L44 227Z" />
<glyph unicode="&#xa1;" glyph-name="exclamdown" horiz-adv-x="319" d="M127 324T104 347T81 404Q81 437 103 459T159 482Q193 482 215 460T238 404Q238 371 216 348T160 324Q127 324 104 347ZM120 -199T102 -178T83 -121Q83 -103 86 -76L136 272H184L234 -76Q238
-100 238 -122Q238 -157 219 -178T160 -199Q120 -199 102 -178Z" />
<glyph unicode="&#xa2;" glyph-name="cent" horiz-adv-x="527" d="M483 168T442 128T325 80V0H272V79Q207 83 154 110T70 187T38 310Q38 427 101 491T272 563V660H325V563Q407 558 448 524T490 445Q490 413 472 397T420 381Q392 381 374 398T355 444Q355 456 360
469T365 488Q365 517 325 524V138Q420 142 461 224L494 209Q483 168 442 128ZM194 257T212 208T272 145V523Q194 502 194 340Q194 257 212 208Z" />
<glyph unicode="&#xa3;" glyph-name="sterling" horiz-adv-x="568" d="M527 156L488 0H61V59Q121 94 147 127T173 205Q173 246 151 314L148 322H42V368H134L124 399Q108 451 108 498Q108 580 159 626T311 672Q393 672 442 642T492 563Q492 531 473 510T421 489Q391
489 372 507T352 553Q352 570 365 592Q366 594 369 600T373 612Q373 623 357 631T308 640Q261 640 240 619T219 555Q219 515 241 441L262 368H404V322H275Q285 281 285 246Q285 200 267 166T214 100V98H415Q441 98 457 104T482 129L494 156H527Z" />
<glyph unicode="&#xa4;" glyph-name="currency" horiz-adv-x="531" d="M27 143L80 196Q35 253 35 330Q35 407 80 464L27 516L79 569L131 517Q159 538 194 549T266 561Q303 561 338 550T401 516L453 569L505 516L452 464Q497 407 497 330Q497 253 452 196L505 143L453
91L401 144Q373 122 339 111T266 99Q229 99 194 110T131 143L79 91L27 143ZM302 188T333 207T383 258T401 330Q401 369 383 401T334 453T266 472Q230 472 199 453T149 402T131 330Q131 291 149 259T198 207T266 188Q302 188 333 207Z" />
<glyph unicode="&#xa5;" glyph-name="yen" horiz-adv-x="554" d="M562 650V617Q529 617 513 604T478 553L369 337H482V287H344L340 279V213H482V164H340V90Q340 63 345 52T365 37T416 33V0H145V33Q179 33 194 37T213 53T218 90V164H78V213H218V279L214 287H78V337H188L70
567Q55 597 41 607T-8 617V650H264V617H223Q196 617 196 599Q196 587 206 568L320 342H322L425 558Q434 578 434 589Q434 603 425 610T401 617H366V650H562Z" />
<glyph unicode="&#xa6;" glyph-name="brokenbar" horiz-adv-x="266" d="M175 427V195H166L147 103L91 195V427H175Z" />
<glyph unicode="&#xa7;" glyph-name="section" horiz-adv-x="562" d="M518 191T498 156T437 93Q445 67 445 41Q445 -28 400 -68T263 -109Q185 -109 142 -80T98 -3Q98 23 112 38T153 53Q180 53 194 39T208 0Q208 -13 205 -19T196 -33T189 -46Q189 -60 211 -70T266
-80Q310 -80 331 -64T352 -12Q352 23 326 50T241 111L188 140Q112 183 78 225T44 326Q44 378 66 413T132 475Q124 499 124 524Q124 587 166 628T302 670Q381 670 420 641T460 564Q460 507 405 507Q378 507 364 520T350 558Q350 570 353 577T362 592T369 606Q369
620 351 630T299 641Q216 641 216 575Q216 545 237 521T317 464L367 435Q449 389 483 348T518 243Q518 191 498 156ZM439 148T439 182Q439 224 409 257T317 324L259 356Q181 400 150 441Q123 419 123 384Q123 344 155 313T252 244L302 216Q346 191 373 171T417
129Q439 148 439 182Z" />
<glyph unicode="&#xa8;" glyph-name="dieresis" horiz-adv-x="377" d="M63 554T44 573T24 621Q24 649 43 669T91 689Q119 689 139 669T159 621Q159 593 139 574T91 554Q63 554 44 573ZM258 554T239 573T219 621Q219 649 238 669T286 689Q314 689 333 669T353 621Q353
593 334 574T286 554Q258 554 239 573Z" />
<glyph unicode="&#xa9;" glyph-name="copyright" horiz-adv-x="751" d="M282 -17T203 29T77 155T30 327Q30 420 76 498T202 623T376 669Q470 669 549 623T675 499T722 327Q722 234 676 155T550 30T376 -17Q282 -17 203 29ZM448 47T509 84T605 185T641 327Q641
404 606 468T509 570T376 607Q304 607 243 570T147 469T111 327Q111 249 146 185T243 84T376 47Q448 47 509 84ZM294 128T242 182T190 329Q190 389 216 434T287 503T387 528Q427 528 466 512Q486 506 490 506Q499 506 502 514L506 521H521L527 396H495Q489 438
466 464T398 490Q339 490 315 445T291 329Q291 262 315 216T403 170Q445 170 475 189T517 232L538 219Q523 181 485 155T385 128Q294 128 242 182Z" />
<glyph unicode="&#xaa;" glyph-name="ordfeminine" horiz-adv-x="350" d="M349 390Q328 380 310 375T268 370Q244 370 230 376T209 401Q166 370 113 370Q75 370 50 385T24 435Q24 482 70 510T206 552V593Q206 623 197 634T162 646Q137 646 126 640T114 627Q114
623 123 613T132 588Q132 571 120 560T89 549Q69 549 57 560T45 591Q45 624 82 647T190 670Q247 670 274 651T302 587V447Q302 423 307 414T325 405Q331 405 336 407T343 410L349 390ZM187 410T206 424V426V522Q164 511 143 495T121 453Q121 410 162 410Q187 410
206 424Z" />
<glyph unicode="&#xab;" glyph-name="guillemotleft" horiz-adv-x="530" d="M32 243L233 458H263L180 243L263 29H232L32 243ZM260 243L461 458H491L407 243L491 29H460L260 243Z" />
<glyph unicode="&#xac;" glyph-name="logicalnot" horiz-adv-x="528" d="M251 319V266H214V319H251ZM467 266V175H251V266H467Z" />
<glyph unicode="&#xae;" glyph-name="registered" horiz-adv-x="477" d="M182 255T134 282T58 358T30 462Q30 518 58 565T134 640T238 668Q295 668 343 641T419 566T447 462Q447 405 419 358T343 283T238 255Q182 255 134 282ZM283 293T319 315T377 376T399 462Q399
509 378 547T319 608T239 631Q196 631 159 609T101 548T79 462Q79 415 100 377T158 316T239 293Q283 293 319 315ZM137 368Q155 368 160 371T166 386V541Q166 553 161 556T137 560V574H255Q295 574 312 560T329 521Q329 498 314 483T274 465V464Q297 459 304 449T317
415L322 391Q325 380 334 374T351 368V353H287Q282 358 277 367T270 387L262 426Q255 453 229 453H217V386Q217 375 222 372T244 368V353H137V368ZM230 470Q275 470 275 514Q275 558 233 558Q222 558 220 556T217 545V470H230Z" />
<glyph unicode="&#xaf;" glyph-name="overscore" horiz-adv-x="392" d="M52 651H339V572H52V651Z" />
<glyph unicode="&#xb0;" glyph-name="degree" horiz-adv-x="335" d="M130 404T100 422T51 470T33 537Q33 573 51 603T99 651T166 669Q222 669 261 631T302 537Q300 481 261 443T166 404Q130 404 100 422ZM203 451T227 477T251 537Q251 571 227 596T167 622Q132
622 109 597T85 537Q85 503 108 477T167 451Q203 451 227 477Z" />
<glyph unicode="&#xb1;" glyph-name="plusminus" horiz-adv-x="524" d="M108 260L30 317L142 345L220 414L276 469L304 399L417 345L495 288L382 260L304 191L248 136L220 205L108 260ZM311 85L495 28L214 0L30 57L311 85Z" />
<glyph unicode="&#xb2;" glyph-name="uni00B2" horiz-adv-x="391" d="M27 275Q27 310 42 337T76 381T136 431Q183 464 207 495T232 571Q232 604 217 622T176 641Q163 641 154 637T145 623Q145 617 150 606T155 582Q155 561 141 546T101 531Q77 531 63 546T48 586Q48
628 90 649T199 671Q268 671 309 647T350 568Q350 524 319 495T212 429Q120 384 93 343H281Q302 343 313 352T332 383H355L332 268H27V275Z" />
<glyph unicode="&#xb3;" glyph-name="uni00B3" horiz-adv-x="380" d="M89 262T56 282T23 337Q23 361 38 376T78 391Q100 391 114 379T128 346Q128 335 123 326T118 313Q118 304 127 299T153 293Q220 293 220 382Q220 469 154 469Q147 469 107 465V500L147 498Q181
498 193 521T206 576Q206 608 195 624T159 640Q143 640 135 635T126 620Q126 615 131 606T137 586Q137 567 124 555T88 543Q62 543 48 557T33 593Q33 628 71 649T169 671Q230 671 275 647T320 577Q320 543 292 518T211 486V485Q237 483 266 472T315 436T336 377Q336
323 288 293T156 262Q89 262 56 282Z" />
<glyph unicode="&#xb4;" glyph-name="acute" horiz-adv-x="378" d="M188 716Q205 752 241 752Q260 752 274 739T288 708Q288 697 284 688T264 660L160 547H110L188 716Z" />
<glyph unicode="&#xb5;" glyph-name="uni00B5" horiz-adv-x="606" d="M531 54T535 46T551 36T591 33V0H393V64H391Q318 -12 226 -12Q180 -12 148 5V3Q148 -43 163 -101Q164 -106 167 -122T171 -150Q171 -179 157 -195T116 -212Q88 -212 75 -196T61 -150Q61 -132
69 -80Q84 -1 84 66V119Q83 126 83 143V381Q83 404 78 411T54 419H21V452L180 475H225V155Q225 100 244 75T299 50Q322 50 343 62T389 99V381Q389 404 384 411T360 419H327V452L486 475H531V72Q531 54 535 46Z" />
<glyph unicode="&#xb6;" glyph-name="paragraph" horiz-adv-x="542" d="M168 245Q100 265 62 318T23 446Q23 546 81 603T237 660H260V-130H168V245ZM325 660H504V628H446Q427 628 422 619T417 584V-130H325V660Z" />
<glyph unicode="&#xb7;" glyph-name="middot" horiz-adv-x="289" d="M113 188T91 210T68 264Q68 296 90 318T144 341Q176 341 198 319T221 264Q221 232 199 210T144 188Q113 188 91 210Z" />
<glyph unicode="&#xb8;" glyph-name="cedilla" horiz-adv-x="424" d="M128 -203T91 -187L107 -150Q139 -164 162 -164Q183 -164 198 -155T214 -126Q214 -110 204 -101T176 -92Q165 -92 153 -99L136 -91L180 1H223L196 -57Q202 -55 212 -54T233 -52Q266 -52 289
-69T313 -120Q313 -164 273 -183T181 -203Q128 -203 91 -187Z" />
<glyph unicode="&#xb9;" glyph-name="uni00B9" horiz-adv-x="336" d="M71 296H119Q127 296 129 298T131 313V590Q119 585 109 582Q72 567 43 559V595Q69 604 102 623T161 664H238V313Q238 301 240 299T252 296H302V268H71V296Z" />
<glyph unicode="&#xba;" glyph-name="ordmasculine" horiz-adv-x="371" d="M109 369T66 409T23 519Q23 587 68 628T186 669Q261 669 304 629T347 520Q347 449 303 409T184 369Q109 369 66 409ZM216 393T229 423T242 517Q241 582 228 613T185 645Q154 645 142 616T129
523Q129 457 142 425T186 393Q216 393 229 423Z" />
<glyph unicode="&#xbb;" glyph-name="guillemotright" horiz-adv-x="530" d="M122 243L39 458H69L270 243L69 29H39L122 243ZM350 243L267 458H296L498 243L297 29H267L350 243Z" />
<glyph unicode="&#xbc;" glyph-name="onequarter" horiz-adv-x="866" d="M584 672H638L269 -12H215L584 672ZM89 296H137Q145 296 147 298T149 313V590Q137 585 127 582Q90 567 61 559V595Q87 604 120 623T179 664H256V313Q256 301 258 299T270 296H320V268H89V296ZM570
28H606Q620 28 620 47V98H445V143Q496 216 552 287T648 401H725V163H791V98H725V47Q725 36 728 32T741 28H776V0H570V28ZM620 163V311H618Q533 208 502 163H620Z" />
<glyph unicode="&#xbd;" glyph-name="onehalf" horiz-adv-x="867" d="M569 672H623L254 -12H200L569 672ZM77 296H125Q133 296 135 298T137 313V590Q125 585 115 582Q78 567 49 559V595Q75 604 108 623T167 664H244V313Q244 301 246 299T258 296H308V268H77V296ZM477
6Q477 42 492 69T527 114T586 162Q633 197 657 228T682 303Q682 335 667 353T626 372Q612 372 604 368T595 355Q595 349 600 338T605 313Q605 292 591 278T551 263Q527 263 513 278T498 317Q498 360 540 381T649 403Q718 403 759 379T800 299Q800 256 769 227T662
161Q570 116 543 75H731Q752 75 763 84T782 115H805L782 0H477V6Z" />
<glyph unicode="&#xbe;" glyph-name="threequarters" horiz-adv-x="912" d="M640 672H694L325 -12H271L640 672ZM133 262T100 282T67 337Q67 361 82 376T122 391Q144 391 158 379T172 346Q172 335 167 326T162 313Q162 304 171 299T197 293Q264 293 264 382Q264
469 198 469Q191 469 151 465V500L191 498Q225 498 237 521T250 576Q250 608 239 624T203 640Q187 640 179 635T170 620Q170 615 175 606T181 586Q181 567 168 555T132 543Q106 543 92 557T77 593Q77 628 115 649T213 671Q274 671 319 647T364 577Q364 543 336
518T255 486V485Q281 483 310 472T359 436T380 377Q380 323 332 293T200 262Q133 262 100 282ZM619 28H655Q669 28 669 47V98H494V143Q545 216 601 287T697 401H774V163H840V98H774V47Q774 36 777 32T790 28H825V0H619V28ZM670 163V311H668Q583 208 552 163H670Z"
/>
<glyph unicode="&#xbf;" glyph-name="questiondown" horiz-adv-x="530" d="M261 329T238 351T215 405Q215 437 237 459T292 482Q324 482 346 460T369 406Q369 375 347 352T292 329Q261 329 238 351ZM175 -199T117 -166T59 -61Q59 -26 73 1T109 47T168 92Q204 117
225 136T261 181T276 243V271H316V243Q316 181 301 143T255 64Q230 28 218 0T205 -73Q205 -124 223 -148T272 -172Q297 -172 316 -159T336 -125Q336 -117 333 -112T324 -99Q317 -90 313 -82T309 -59Q309 -29 329 -10T383 9Q420 9 440 -13T461 -72Q461 -137 398
-168T254 -199Q175 -199 117 -166Z" />
<glyph unicode="&#xc0;" glyph-name="Agrave" horiz-adv-x="709" d="M627 60T634 50T655 37T696 33V0H396V33H443Q470 33 470 56Q470 65 467 75L410 234H204L147 72Q144 62 144 54Q144 43 150 38T173 33H215V0H7V33Q48 33 65 43T95 88L315 660H410L618 83Q627
60 634 50ZM397 271L308 518H305L217 271H397ZM292 848Q277 866 273 875T268 896Q268 914 282 927T315 940Q351 940 368 904L446 735H396L292 848Z" />
<glyph unicode="&#xc1;" glyph-name="Aacute" horiz-adv-x="709" d="M627 60T634 50T655 37T696 33V0H396V33H443Q470 33 470 56Q470 65 467 75L410 234H204L147 72Q144 62 144 54Q144 43 150 38T173 33H215V0H7V33Q48 33 65 43T95 88L315 660H410L618 83Q627
60 634 50ZM397 271L308 518H305L217 271H397ZM346 906Q363 942 399 942Q418 942 432 929T446 898Q446 887 442 878T422 850L318 737H268L346 906Z" />
<glyph unicode="&#xc2;" glyph-name="Acircumflex" horiz-adv-x="709" d="M627 60T634 50T655 37T696 33V0H396V33H443Q470 33 470 56Q470 65 467 75L410 234H204L147 72Q144 62 144 54Q144 43 150 38T173 33H215V0H7V33Q48 33 65 43T95 88L315 660H410L618 83Q627
60 634 50ZM397 271L308 518H305L217 271H397ZM312 903H403L513 730H463L355 823L250 730H200L312 903Z" />
<glyph unicode="&#xc3;" glyph-name="Atilde" horiz-adv-x="709" d="M627 60T634 50T655 37T696 33V0H396V33H443Q470 33 470 56Q470 65 467 75L410 234H204L147 72Q144 62 144 54Q144 43 150 38T173 33H215V0H7V33Q48 33 65 43T95 88L315 660H410L618 83Q627
60 634 50ZM397 271L308 518H305L217 271H397ZM398 741T380 747T338 765Q318 775 303 780T271 786Q229 786 218 745H186Q195 798 221 834T296 871Q316 871 334 865T374 847Q397 836 413 831T446 825Q469 825 480 835T495 866H528Q520 815 493 778T418 741Q398 741
380 747Z" />
<glyph unicode="&#xc4;" glyph-name="Adieresis" horiz-adv-x="709" d="M627 60T634 50T655 37T696 33V0H396V33H443Q470 33 470 56Q470 65 467 75L410 234H204L147 72Q144 62 144 54Q144 43 150 38T173 33H215V0H7V33Q48 33 65 43T95 88L315 660H410L618 83Q627
60 634 50ZM397 271L308 518H305L217 271H397ZM231 744T212 763T192 811Q192 839 211 859T259 879Q287 879 307 859T327 811Q327 783 307 764T259 744Q231 744 212 763ZM426 744T407 763T387 811Q387 839 406 859T454 879Q482 879 501 859T521 811Q521 783 502
764T454 744Q426 744 407 763Z" />
<glyph unicode="&#xc5;" glyph-name="Aring" horiz-adv-x="709" d="M627 60T634 50T655 37T696 33V0H396V33H443Q470 33 470 56Q470 65 467 75L410 234H204L147 72Q144 62 144 54Q144 43 150 38T173 33H215V0H7V33Q48 33 65 43T95 88L315 660H410L618 83Q627 60
634 50ZM397 271L308 518H305L217 271H397ZM315 709T286 738T256 810Q256 853 285 882T357 911Q399 911 428 882T458 810Q458 768 429 739T357 709Q315 709 286 738ZM379 758T394 773T410 810Q410 832 395 847T358 863Q336 863 321 848T306 810Q306 788 321 773T358
758Q379 758 394 773Z" />
<glyph unicode="&#xc6;" glyph-name="AE" horiz-adv-x="912" d="M884 178L872 0H352V33Q386 33 401 37T420 52T425 89V321H279L152 72Q145 59 145 50Q145 33 175 33H227V0H7V33Q36 33 52 37T78 52T101 86L353 569Q363 588 363 602Q363 627 335 627H283V660H858V499H823Q810
550 794 576T751 612T674 622H613Q591 622 584 615T576 588V366H675Q705 366 720 373T743 399T756 455H786V235H756Q751 273 744 291T721 317T675 325H576V107Q576 77 582 63T607 44T667 38Q726 38 760 49T814 89T849 178H884ZM425 362V599H421L300 362H425Z" />
<glyph unicode="&#xc7;" glyph-name="Ccedilla" horiz-adv-x="665" d="M357 -12L336 -57Q342 -55 352 -54T373 -52Q406 -52 429 -69T453 -120Q453 -164 413 -183T321 -203Q268 -203 231 -187L247 -150Q279 -164 302 -164Q323 -164 338 -155T354 -126Q354 -110
344 -101T316 -92Q305 -92 293 -99L276 -91L316 -8Q184 8 112 93T39 323Q39 490 130 581T384 672Q430 672 462 665T523 645Q546 635 557 635Q576 635 583 650L587 660H614L624 471H591Q577 544 529 590T403 636Q288 636 245 541T202 330Q202 193 252 109T403 24Q484
24 533 66T604 171L633 158Q608 84 548 36T378 -12H357Z" />
<glyph unicode="&#xc8;" glyph-name="Egrave" horiz-adv-x="611" d="M37 33Q71 33 86 37T105 52T110 89V570Q110 596 105 607T86 623T37 627V660H556V499H521Q509 550 493 576T449 612T372 622H299Q277 622 270 615T262 588V367H373Q403 367 418 374T441 400T454
456H484V234H454Q449 272 442 290T419 315T373 323H262V104Q262 73 268 61T297 43T371 38Q425 38 458 50T513 93T547 178H582L570 0H37V33ZM250 848Q235 866 231 875T226 896Q226 914 240 927T273 940Q309 940 326 904L404 735H354L250 848Z" />
<glyph unicode="&#xc9;" glyph-name="Eacute" horiz-adv-x="611" d="M37 33Q71 33 86 37T105 52T110 89V570Q110 596 105 607T86 623T37 627V660H556V499H521Q509 550 493 576T449 612T372 622H299Q277 622 270 615T262 588V367H373Q403 367 418 374T441 400T454
456H484V234H454Q449 272 442 290T419 315T373 323H262V104Q262 73 268 61T297 43T371 38Q425 38 458 50T513 93T547 178H582L570 0H37V33ZM304 906Q321 942 357 942Q376 942 390 929T404 898Q404 887 400 878T380 850L276 737H226L304 906Z" />
<glyph unicode="&#xca;" glyph-name="Ecircumflex" horiz-adv-x="611" d="M37 33Q71 33 86 37T105 52T110 89V570Q110 596 105 607T86 623T37 627V660H556V499H521Q509 550 493 576T449 612T372 622H299Q277 622 270 615T262 588V367H373Q403 367 418 374T441
400T454 456H484V234H454Q449 272 442 290T419 315T373 323H262V104Q262 73 268 61T297 43T371 38Q425 38 458 50T513 93T547 178H582L570 0H37V33ZM270 903H361L471 730H421L313 823L208 730H158L270 903Z" />
<glyph unicode="&#xcb;" glyph-name="Edieresis" horiz-adv-x="611" d="M37 33Q71 33 86 37T105 52T110 89V570Q110 596 105 607T86 623T37 627V660H556V499H521Q509 550 493 576T449 612T372 622H299Q277 622 270 615T262 588V367H373Q403 367 418 374T441 400T454
456H484V234H454Q449 272 442 290T419 315T373 323H262V104Q262 73 268 61T297 43T371 38Q425 38 458 50T513 93T547 178H582L570 0H37V33ZM189 744T170 763T150 811Q150 839 169 859T217 879Q245 879 265 859T285 811Q285 783 265 764T217 744Q189 744 170 763ZM384
744T365 763T345 811Q345 839 364 859T412 879Q440 879 459 859T479 811Q479 783 460 764T412 744Q384 744 365 763Z" />
<glyph unicode="&#xcc;" glyph-name="Igrave" horiz-adv-x="372" d="M37 33Q72 33 86 37T105 52T110 89V569Q110 596 105 607T86 623T37 627V660H334V627Q300 627 286 623T267 608T262 569V89Q262 62 266 51T285 37T334 33V0H37V33ZM121 848Q106 866 102 875T97
896Q97 914 111 927T144 940Q180 940 197 904L275 735H225L121 848Z" />
<glyph unicode="&#xcd;" glyph-name="Iacute" horiz-adv-x="372" d="M37 33Q72 33 86 37T105 52T110 89V569Q110 596 105 607T86 623T37 627V660H334V627Q300 627 286 623T267 608T262 569V89Q262 62 266 51T285 37T334 33V0H37V33ZM175 906Q192 942 228 942Q247
942 261 929T275 898Q275 887 271 878T251 850L147 737H97L175 906Z" />
<glyph unicode="&#xce;" glyph-name="Icircumflex" horiz-adv-x="372" d="M37 33Q72 33 86 37T105 52T110 89V569Q110 596 105 607T86 623T37 627V660H334V627Q300 627 286 623T267 608T262 569V89Q262 62 266 51T285 37T334 33V0H37V33ZM141 903H232L342 730H292L184
823L79 730H29L141 903Z" />
<glyph unicode="&#xcf;" glyph-name="Idieresis" horiz-adv-x="372" d="M37 33Q72 33 86 37T105 52T110 89V569Q110 596 105 607T86 623T37 627V660H334V627Q300 627 286 623T267 608T262 569V89Q262 62 266 51T285 37T334 33V0H37V33ZM60 744T41 763T21 811Q21
839 40 859T88 879Q116 879 136 859T156 811Q156 783 136 764T88 744Q60 744 41 763ZM255 744T236 763T216 811Q216 839 235 859T283 879Q311 879 330 859T350 811Q350 783 331 764T283 744Q255 744 236 763Z" />
<glyph unicode="&#xd0;" glyph-name="Eth" horiz-adv-x="765" d="M549 658T637 581T725 339Q725 160 629 80T343 0H48V33Q87 33 103 37T123 51T127 89V309H39V361H127V570Q127 597 122 608T102 623T48 627V660H376Q549 658 637 581ZM458 38T509 110T561 336Q561
622 354 622Q310 622 295 616T279 585V361H424V309H279V96Q279 60 293 49T348 38Q458 38 509 110Z" />
<glyph unicode="&#xd1;" glyph-name="Ntilde" horiz-adv-x="709" d="M150 537H148V85Q148 57 159 45T198 33H233V0H33V33H59Q83 33 94 45T106 85V570Q106 596 102 607T82 622T32 627V660H251L561 181H564V579Q564 627 513 627H478V660H676V627H652Q606 627 606
579V-7H506L150 537ZM394 741T376 747T334 765Q314 775 299 780T267 786Q225 786 214 745H182Q191 798 217 834T292 871Q312 871 330 865T370 847Q393 836 409 831T442 825Q465 825 476 835T491 866H524Q516 815 489 778T414 741Q394 741 376 747Z" />
<glyph unicode="&#xd2;" glyph-name="Ograve" horiz-adv-x="739" d="M207 -11T123 79T39 331Q39 493 123 582T369 672Q531 672 615 583T700 331Q700 169 616 79T369 -11Q207 -11 123 79ZM458 25T497 101T537 331Q537 636 370 636Q282 636 243 561T203 331Q203
177 242 101T370 25Q458 25 497 101ZM305 848Q290 866 286 875T281 896Q281 914 295 927T328 940Q364 940 381 904L459 735H409L305 848Z" />
<glyph unicode="&#xd3;" glyph-name="Oacute" horiz-adv-x="739" d="M207 -11T123 79T39 331Q39 493 123 582T369 672Q531 672 615 583T700 331Q700 169 616 79T369 -11Q207 -11 123 79ZM458 25T497 101T537 331Q537 636 370 636Q282 636 243 561T203 331Q203
177 242 101T370 25Q458 25 497 101ZM359 906Q376 942 412 942Q431 942 445 929T459 898Q459 887 455 878T435 850L331 737H281L359 906Z" />
<glyph unicode="&#xd4;" glyph-name="Ocircumflex" horiz-adv-x="739" d="M207 -11T123 79T39 331Q39 493 123 582T369 672Q531 672 615 583T700 331Q700 169 616 79T369 -11Q207 -11 123 79ZM458 25T497 101T537 331Q537 636 370 636Q282 636 243 561T203 331Q203
177 242 101T370 25Q458 25 497 101ZM325 903H416L526 730H476L368 823L263 730H213L325 903Z" />
<glyph unicode="&#xd5;" glyph-name="Otilde" horiz-adv-x="739" d="M207 -11T123 79T39 331Q39 493 123 582T369 672Q531 672 615 583T700 331Q700 169 616 79T369 -11Q207 -11 123 79ZM458 25T497 101T537 331Q537 636 370 636Q282 636 243 561T203 331Q203
177 242 101T370 25Q458 25 497 101ZM411 741T393 747T351 765Q331 775 316 780T284 786Q242 786 231 745H199Q208 798 234 834T309 871Q329 871 347 865T387 847Q410 836 426 831T459 825Q482 825 493 835T508 866H541Q533 815 506 778T431 741Q411 741 393 747Z"
/>
<glyph unicode="&#xd6;" glyph-name="Odieresis" horiz-adv-x="739" d="M207 -11T123 79T39 331Q39 493 123 582T369 672Q531 672 615 583T700 331Q700 169 616 79T369 -11Q207 -11 123 79ZM458 25T497 101T537 331Q537 636 370 636Q282 636 243 561T203 331Q203
177 242 101T370 25Q458 25 497 101ZM244 744T225 763T205 811Q205 839 224 859T272 879Q300 879 320 859T340 811Q340 783 320 764T272 744Q244 744 225 763ZM439 744T420 763T400 811Q400 839 419 859T467 879Q495 879 514 859T534 811Q534 783 515 764T467 744Q439
744 420 763Z" />
<glyph unicode="&#xd7;" glyph-name="multiply" horiz-adv-x="507" d="M41 82L195 236L41 390L101 450L254 295L408 450L468 390L314 236L468 82L408 23L254 177L101 23L41 82Z" />
<glyph unicode="&#xd8;" glyph-name="Oslash" horiz-adv-x="739" d="M700 498T700 331Q700 169 616 79T369 -11Q237 -11 156 50L109 -6H51L123 79Q39 168 39 331Q39 493 123 582T369 672Q496 672 578 615L621 666H678L611 587Q700 498 700 331ZM203 250T214 187L508
533Q467 636 370 636Q282 636 243 561T203 331Q203 250 214 187ZM458 25T497 101T537 331Q537 418 523 483L228 134Q266 25 370 25Q458 25 497 101Z" />
<glyph unicode="&#xd9;" glyph-name="Ugrave" horiz-adv-x="765" d="M236 -12T171 44T105 224V570Q105 597 101 608T83 623T33 627V660H330V627Q295 627 281 623T262 608T257 570V219Q257 123 287 77T384 31Q452 31 482 77T513 219V570Q513 597 509 608T490 623T440
627V660H735V627Q700 627 686 623T667 608T663 570V224Q663 101 596 45T382 -12Q236 -12 171 44ZM319 848Q304 866 300 875T295 896Q295 914 309 927T342 940Q378 940 395 904L473 735H423L319 848Z" />
<glyph unicode="&#xda;" glyph-name="Uacute" horiz-adv-x="765" d="M236 -12T171 44T105 224V570Q105 597 101 608T83 623T33 627V660H330V627Q295 627 281 623T262 608T257 570V219Q257 123 287 77T384 31Q452 31 482 77T513 219V570Q513 597 509 608T490 623T440
627V660H735V627Q700 627 686 623T667 608T663 570V224Q663 101 596 45T382 -12Q236 -12 171 44ZM373 906Q390 942 426 942Q445 942 459 929T473 898Q473 887 469 878T449 850L345 737H295L373 906Z" />
<glyph unicode="&#xdb;" glyph-name="Ucircumflex" horiz-adv-x="765" d="M236 -12T171 44T105 224V570Q105 597 101 608T83 623T33 627V660H330V627Q295 627 281 623T262 608T257 570V219Q257 123 287 77T384 31Q452 31 482 77T513 219V570Q513 597 509 608T490
623T440 627V660H735V627Q700 627 686 623T667 608T663 570V224Q663 101 596 45T382 -12Q236 -12 171 44ZM339 903H430L540 730H490L382 823L277 730H227L339 903Z" />
<glyph unicode="&#xdc;" glyph-name="Udieresis" horiz-adv-x="765" d="M236 -12T171 44T105 224V570Q105 597 101 608T83 623T33 627V660H330V627Q295 627 281 623T262 608T257 570V219Q257 123 287 77T384 31Q452 31 482 77T513 219V570Q513 597 509 608T490
623T440 627V660H735V627Q700 627 686 623T667 608T663 570V224Q663 101 596 45T382 -12Q236 -12 171 44ZM258 744T239 763T219 811Q219 839 238 859T286 879Q314 879 334 859T354 811Q354 783 334 764T286 744Q258 744 239 763ZM453 744T434 763T414 811Q414 839
433 859T481 879Q509 879 528 859T548 811Q548 783 529 764T481 744Q453 744 434 763Z" />
<glyph unicode="&#xdd;" glyph-name="Yacute" horiz-adv-x="652" d="M647 660V627Q610 627 593 614T556 563L405 265V90Q405 64 410 53T432 37T485 33V0H178V33Q215 33 230 37T250 52T255 90V254L94 577Q79 607 64 617T11 627V660H323V627H280Q255 627 255 607Q255
594 263 577L386 317H388L505 568Q513 587 513 598Q513 612 504 619T481 627H444V660H647ZM313 906Q330 942 366 942Q385 942 399 929T413 898Q413 887 409 878T389 850L285 737H235L313 906Z" />
<glyph unicode="&#xde;" glyph-name="Thorn" horiz-adv-x="605" d="M37 33Q72 33 86 37T105 52T110 91V569Q110 596 106 607T88 622T37 627V660H335V627Q301 627 287 623T267 608T262 569V522H328Q451 522 517 480T584 349Q584 245 501 206T299 167H262V91Q262
64 266 53T285 38T337 33V0H37V33ZM298 207Q429 207 429 345Q429 413 398 447T308 482Q280 482 271 475T262 449V207H298Z" />
<glyph unicode="&#xdf;" glyph-name="germandbls" horiz-adv-x="620" d="M548 245T576 211T604 127Q604 65 558 27T434 -12Q381 -12 350 11T318 69Q318 92 332 109T373 126Q394 126 407 114T421 82Q421 69 414 59T407 43Q407 34 417 29T441 24Q462 24 473 40T485
84Q485 122 464 146T393 203Q341 238 319 274T296 349Q296 394 321 426T395 475Q412 508 412 555Q412 611 390 639T326 668Q279 668 255 627T231 492V83Q231 52 240 43T283 33V0H26V33Q55 33 68 36T85 49T90 77V433H26V470H90Q94 590 152 647T329 704Q434 704 485
662T536 551Q536 506 515 475Q475 473 445 449T415 388Q415 358 434 336T492 286Q548 245 576 211Z" />
<glyph unicode="&#xe0;" glyph-name="agrave" horiz-adv-x="527" d="M527 21Q477 -11 407 -11Q369 -11 346 2T316 38Q254 -11 175 -11Q109 -11 73 16T37 95Q37 162 110 209T313 280V355Q312 399 296 419T238 440Q214 440 197 433T180 414Q180 406 190 394Q198
384 201 377T205 357Q205 331 186 313T136 294Q104 294 86 312T67 356Q67 387 90 415T164 461T289 480Q375 480 414 442T454 320V100Q454 64 460 52T482 40Q495 40 504 44T516 50L527 21ZM178 82T193 66T242 49Q274 49 313 78V239Q243 220 211 191T178 118Q178
82 193 66ZM200 658Q185 676 181 685T176 706Q176 724 190 737T223 750Q259 750 276 714L354 545H304L200 658Z" />
<glyph unicode="&#xe1;" glyph-name="aacute" horiz-adv-x="527" d="M527 21Q477 -11 407 -11Q369 -11 346 2T316 38Q254 -11 175 -11Q109 -11 73 16T37 95Q37 162 110 209T313 280V355Q312 399 296 419T238 440Q214 440 197 433T180 414Q180 406 190 394Q198
384 201 377T205 357Q205 331 186 313T136 294Q104 294 86 312T67 356Q67 387 90 415T164 461T289 480Q375 480 414 442T454 320V100Q454 64 460 52T482 40Q495 40 504 44T516 50L527 21ZM178 82T193 66T242 49Q274 49 313 78V239Q243 220 211 191T178 118Q178
82 193 66ZM254 716Q271 752 307 752Q326 752 340 739T354 708Q354 697 350 688T330 660L226 547H176L254 716Z" />
<glyph unicode="&#xe2;" glyph-name="acircumflex" horiz-adv-x="527" d="M527 21Q477 -11 407 -11Q369 -11 346 2T316 38Q254 -11 175 -11Q109 -11 73 16T37 95Q37 162 110 209T313 280V355Q312 399 296 419T238 440Q214 440 197 433T180 414Q180 406 190 394Q198
384 201 377T205 357Q205 331 186 313T136 294Q104 294 86 312T67 356Q67 387 90 415T164 461T289 480Q375 480 414 442T454 320V100Q454 64 460 52T482 40Q495 40 504 44T516 50L527 21ZM178 82T193 66T242 49Q274 49 313 78V239Q243 220 211 191T178 118Q178
82 193 66ZM220 713H311L421 540H371L263 633L158 540H108L220 713Z" />
<glyph unicode="&#xe3;" glyph-name="atilde" horiz-adv-x="527" d="M527 21Q477 -11 407 -11Q369 -11 346 2T316 38Q254 -11 175 -11Q109 -11 73 16T37 95Q37 162 110 209T313 280V355Q312 399 296 419T238 440Q214 440 197 433T180 414Q180 406 190 394Q198
384 201 377T205 357Q205 331 186 313T136 294Q104 294 86 312T67 356Q67 387 90 415T164 461T289 480Q375 480 414 442T454 320V100Q454 64 460 52T482 40Q495 40 504 44T516 50L527 21ZM178 82T193 66T242 49Q274 49 313 78V239Q243 220 211 191T178 118Q178
82 193 66ZM306 551T288 557T246 575Q226 585 211 590T179 596Q137 596 126 555H94Q103 608 129 644T204 681Q224 681 242 675T282 657Q305 646 321 641T354 635Q377 635 388 645T403 676H436Q428 625 401 588T326 551Q306 551 288 557Z" />
<glyph unicode="&#xe4;" glyph-name="adieresis" horiz-adv-x="527" d="M527 21Q477 -11 407 -11Q369 -11 346 2T316 38Q254 -11 175 -11Q109 -11 73 16T37 95Q37 162 110 209T313 280V355Q312 399 296 419T238 440Q214 440 197 433T180 414Q180 406 190 394Q198
384 201 377T205 357Q205 331 186 313T136 294Q104 294 86 312T67 356Q67 387 90 415T164 461T289 480Q375 480 414 442T454 320V100Q454 64 460 52T482 40Q495 40 504 44T516 50L527 21ZM178 82T193 66T242 49Q274 49 313 78V239Q243 220 211 191T178 118Q178
82 193 66ZM139 554T120 573T100 621Q100 649 119 669T167 689Q195 689 215 669T235 621Q235 593 215 574T167 554Q139 554 120 573ZM334 554T315 573T295 621Q295 649 314 669T362 689Q390 689 409 669T429 621Q429 593 410 574T362 554Q334 554 315 573Z" />
<glyph unicode="&#xe5;" glyph-name="aring" horiz-adv-x="527" d="M527 21Q477 -11 407 -11Q369 -11 346 2T316 38Q254 -11 175 -11Q109 -11 73 16T37 95Q37 162 110 209T313 280V355Q312 399 296 419T238 440Q214 440 197 433T180 414Q180 406 190 394Q198 384
201 377T205 357Q205 331 186 313T136 294Q104 294 86 312T67 356Q67 387 90 415T164 461T289 480Q375 480 414 442T454 320V100Q454 64 460 52T482 40Q495 40 504 44T516 50L527 21ZM178 82T193 66T242 49Q274 49 313 78V239Q243 220 211 191T178 118Q178 82 193
66ZM223 519T194 548T164 620Q164 663 193 692T265 721Q307 721 336 692T366 620Q366 578 337 549T265 519Q223 519 194 548ZM287 568T302 583T318 620Q318 642 303 657T266 673Q244 673 229 658T214 620Q214 598 229 583T266 568Q287 568 302 583Z" />
<glyph unicode="&#xe6;" glyph-name="ae" horiz-adv-x="792" d="M757 231H458Q461 135 488 93T578 51Q628 51 660 75T714 144L746 126Q729 87 707 58T642 9T535 -11Q420 -11 363 58Q323 27 278 8T176 -11Q110 -11 74 16T37 92Q37 162 111 208T313 270V355Q313
398 296 419T238 440Q213 440 197 433T180 414Q180 408 188 399T200 382T205 358Q205 331 186 313T136 294Q104 294 86 312T67 358Q67 389 93 417T166 463T274 480Q358 480 402 442Q456 481 544 481Q652 481 704 421T757 238V231ZM608 267Q608 334 602 372T580
428T536 445Q497 445 478 406T458 267H608ZM292 49T342 89Q313 145 313 230V232Q242 218 210 190T178 115Q178 49 242 49Q292 49 342 89Z" />
<glyph unicode="&#xe7;" glyph-name="ccedilla" horiz-adv-x="496" d="M260 -11L239 -57Q245 -55 255 -54T276 -52Q309 -52 332 -69T356 -120Q356 -164 316 -183T224 -203Q171 -203 134 -187L150 -150Q182 -164 205 -164Q226 -164 241 -155T257 -126Q257 -110
247 -101T219 -92Q208 -92 196 -99L179 -91L219 -8Q130 4 83 64T36 229Q36 353 99 417T276 481Q363 481 410 446T457 358Q457 326 440 308T389 289Q359 289 341 304T323 348Q323 363 332 383Q339 395 339 406Q339 423 324 434T280 445Q232 445 209 406T185 260Q185
145 213 98T306 51Q359 51 386 75T436 144L467 128Q443 64 399 27T265 -11H260Z" />
<glyph unicode="&#xe8;" glyph-name="egrave" horiz-adv-x="520" d="M484 231H185Q188 136 215 94T305 51Q399 51 440 144L474 126Q448 64 402 27T261 -11Q150 -11 93 50T36 234Q36 357 94 419T264 481Q484 481 484 240V231ZM335 267Q335 332 330 369T308 426T263
445Q224 445 205 406T185 267H335ZM196 658Q181 676 177 685T172 706Q172 724 186 737T219 750Q255 750 272 714L350 545H300L196 658Z" />
<glyph unicode="&#xe9;" glyph-name="eacute" horiz-adv-x="520" d="M484 231H185Q188 136 215 94T305 51Q399 51 440 144L474 126Q448 64 402 27T261 -11Q150 -11 93 50T36 234Q36 357 94 419T264 481Q484 481 484 240V231ZM335 267Q335 332 330 369T308 426T263
445Q224 445 205 406T185 267H335ZM250 716Q267 752 303 752Q322 752 336 739T350 708Q350 697 346 688T326 660L222 547H172L250 716Z" />
<glyph unicode="&#xea;" glyph-name="ecircumflex" horiz-adv-x="520" d="M484 231H185Q188 136 215 94T305 51Q399 51 440 144L474 126Q448 64 402 27T261 -11Q150 -11 93 50T36 234Q36 357 94 419T264 481Q484 481 484 240V231ZM335 267Q335 332 330 369T308
426T263 445Q224 445 205 406T185 267H335ZM216 713H307L417 540H367L259 633L154 540H104L216 713Z" />
<glyph unicode="&#xeb;" glyph-name="edieresis" horiz-adv-x="520" d="M484 231H185Q188 136 215 94T305 51Q399 51 440 144L474 126Q448 64 402 27T261 -11Q150 -11 93 50T36 234Q36 357 94 419T264 481Q484 481 484 240V231ZM335 267Q335 332 330 369T308 426T263
445Q224 445 205 406T185 267H335ZM135 554T116 573T96 621Q96 649 115 669T163 689Q191 689 211 669T231 621Q231 593 211 574T163 554Q135 554 116 573ZM330 554T311 573T291 621Q291 649 310 669T358 689Q386 689 405 669T425 621Q425 593 406 574T358 554Q330
554 311 573Z" />
<glyph unicode="&#xec;" glyph-name="igrave" horiz-adv-x="301" d="M22 33Q51 33 64 37T81 51T86 83V379Q86 402 81 409T57 417H24V450L184 475H228V83Q228 61 232 51T248 37T286 33V0H22V33ZM86 658Q71 676 67 685T62 706Q62 724 76 737T109 750Q145 750 162
714L240 545H190L86 658Z" />
<glyph unicode="&#xed;" glyph-name="iacute" horiz-adv-x="301" d="M22 33Q51 33 64 37T81 51T86 83V379Q86 402 81 409T57 417H24V450L184 475H228V83Q228 61 232 51T248 37T286 33V0H22V33ZM140 716Q157 752 193 752Q212 752 226 739T240 708Q240 697 236 688T216
660L112 547H62L140 716Z" />
<glyph unicode="&#xee;" glyph-name="icircumflex" horiz-adv-x="301" d="M22 33Q51 33 64 37T81 51T86 83V379Q86 402 81 409T57 417H24V450L184 475H228V83Q228 61 232 51T248 37T286 33V0H22V33ZM106 713H197L307 540H257L149 633L44 540H-6L106 713Z" />
<glyph unicode="&#xef;" glyph-name="idieresis" horiz-adv-x="301" d="M22 33Q51 33 64 37T81 51T86 83V379Q86 402 81 409T57 417H24V450L184 475H228V83Q228 61 232 51T248 37T286 33V0H22V33ZM25 554T6 573T-14 621Q-14 649 5 669T53 689Q81 689 101 669T121
621Q121 593 101 574T53 554Q25 554 6 573ZM220 554T201 573T181 621Q181 649 200 669T248 689Q276 689 295 669T315 621Q315 593 296 574T248 554Q220 554 201 573Z" />
<glyph unicode="&#xf0;" glyph-name="eth" horiz-adv-x="569" d="M480 444T505 384T531 246Q531 120 468 54T280 -12Q159 -12 97 50T35 234Q35 355 96 417T275 480Q295 480 306 478T320 476L321 477Q288 523 254 558L121 500L94 538L218 592Q166 637 108 673L151
707Q230 667 291 624L429 684L456 645L334 592Q380 556 424 507Q480 444 505 384ZM338 24T359 75T381 232Q381 343 360 393T285 444Q232 444 209 394T185 237Q185 131 209 78T287 24Q338 24 359 75Z" />
<glyph unicode="&#xf1;" glyph-name="ntilde" horiz-adv-x="623" d="M538 61T542 51T558 37T599 33V0H344V33Q368 33 378 36T392 48T396 78V318Q396 420 323 420Q297 420 277 409T231 372V81Q231 59 235 49T251 36T286 33V0H25V33Q54 33 67 37T84 51T89 83V379Q89
402 84 409T60 417H27V450L184 475H227V409H230Q265 442 303 461T393 481Q462 481 500 442T538 324V83Q538 61 542 51ZM350 551T332 557T290 575Q270 585 255 590T223 596Q181 596 170 555H138Q147 608 173 644T248 681Q268 681 286 675T326 657Q349 646 365 641T398
635Q421 635 432 645T447 676H480Q472 625 445 588T370 551Q350 551 332 557Z" />
<glyph unicode="&#xf2;" glyph-name="ograve" horiz-adv-x="566" d="M157 -11T96 49T35 234Q35 360 96 421T285 482Q410 482 470 422T530 236Q530 109 470 49T283 -11Q157 -11 96 49ZM335 24T358 72T381 222Q381 340 358 393T282 446Q230 446 207 394T184 233Q184
122 207 73T284 24Q335 24 358 72ZM218 658Q203 676 199 685T194 706Q194 724 208 737T241 750Q277 750 294 714L372 545H322L218 658Z" />
<glyph unicode="&#xf3;" glyph-name="oacute" horiz-adv-x="566" d="M157 -11T96 49T35 234Q35 360 96 421T285 482Q410 482 470 422T530 236Q530 109 470 49T283 -11Q157 -11 96 49ZM335 24T358 72T381 222Q381 340 358 393T282 446Q230 446 207 394T184 233Q184
122 207 73T284 24Q335 24 358 72ZM272 716Q289 752 325 752Q344 752 358 739T372 708Q372 697 368 688T348 660L244 547H194L272 716Z" />
<glyph unicode="&#xf4;" glyph-name="ocircumflex" horiz-adv-x="566" d="M157 -11T96 49T35 234Q35 360 96 421T285 482Q410 482 470 422T530 236Q530 109 470 49T283 -11Q157 -11 96 49ZM335 24T358 72T381 222Q381 340 358 393T282 446Q230 446 207 394T184
233Q184 122 207 73T284 24Q335 24 358 72ZM238 713H329L439 540H389L281 633L176 540H126L238 713Z" />
<glyph unicode="&#xf5;" glyph-name="otilde" horiz-adv-x="566" d="M157 -11T96 49T35 234Q35 360 96 421T285 482Q410 482 470 422T530 236Q530 109 470 49T283 -11Q157 -11 96 49ZM335 24T358 72T381 222Q381 340 358 393T282 446Q230 446 207 394T184 233Q184
122 207 73T284 24Q335 24 358 72ZM324 551T306 557T264 575Q244 585 229 590T197 596Q155 596 144 555H112Q121 608 147 644T222 681Q242 681 260 675T300 657Q323 646 339 641T372 635Q395 635 406 645T421 676H454Q446 625 419 588T344 551Q324 551 306 557Z"
/>
<glyph unicode="&#xf6;" glyph-name="odieresis" horiz-adv-x="566" d="M157 -11T96 49T35 234Q35 360 96 421T285 482Q410 482 470 422T530 236Q530 109 470 49T283 -11Q157 -11 96 49ZM335 24T358 72T381 222Q381 340 358 393T282 446Q230 446 207 394T184 233Q184
122 207 73T284 24Q335 24 358 72ZM157 554T138 573T118 621Q118 649 137 669T185 689Q213 689 233 669T253 621Q253 593 233 574T185 554Q157 554 138 573ZM352 554T333 573T313 621Q313 649 332 669T380 689Q408 689 427 669T447 621Q447 593 428 574T380 554Q352
554 333 573Z" />
<glyph unicode="&#xf7;" glyph-name="divide" horiz-adv-x="528" d="M233 347T211 369T188 424Q188 456 210 479T265 502Q297 502 319 479T342 424Q342 393 320 370T265 347Q233 347 211 369ZM30 279H499V194H30V279ZM233 -29T211 -6T188 49Q188 81 210 103T265
126Q297 126 319 104T342 49Q342 17 320 -6T265 -29Q233 -29 211 -6Z" />
<glyph unicode="&#xf8;" glyph-name="oslash" horiz-adv-x="569" d="M533 374T533 236Q533 109 473 49T286 -11Q182 -11 121 30L91 -6H37L91 58Q38 117 38 234Q38 360 99 421T288 482Q370 482 425 456L442 476H495L460 434Q533 374 533 236ZM187 209T189 175L365
384Q353 416 334 431T285 446Q233 446 210 394T187 233Q187 209 189 175ZM338 24T361 72T384 222Q384 300 377 335L196 119Q206 70 227 47T287 24Q338 24 361 72Z" />
<glyph unicode="&#xf9;" glyph-name="ugrave" horiz-adv-x="617" d="M532 54T536 46T552 36T592 33V0H394V64H391Q318 -12 226 -12Q157 -12 120 26T83 143V381Q83 404 78 411T54 419H21V452L180 475H225V155Q225 100 244 75T299 50Q322 50 343 62T390 100V381Q390
404 385 411T361 419H328V452L487 475H532V72Q532 54 536 46ZM240 658Q225 676 221 685T216 706Q216 724 230 737T263 750Q299 750 316 714L394 545H344L240 658Z" />
<glyph unicode="&#xfa;" glyph-name="uacute" horiz-adv-x="617" d="M532 54T536 46T552 36T592 33V0H394V64H391Q318 -12 226 -12Q157 -12 120 26T83 143V381Q83 404 78 411T54 419H21V452L180 475H225V155Q225 100 244 75T299 50Q322 50 343 62T390 100V381Q390
404 385 411T361 419H328V452L487 475H532V72Q532 54 536 46ZM294 716Q311 752 347 752Q366 752 380 739T394 708Q394 697 390 688T370 660L266 547H216L294 716Z" />
<glyph unicode="&#xfb;" glyph-name="ucircumflex" horiz-adv-x="617" d="M532 54T536 46T552 36T592 33V0H394V64H391Q318 -12 226 -12Q157 -12 120 26T83 143V381Q83 404 78 411T54 419H21V452L180 475H225V155Q225 100 244 75T299 50Q322 50 343 62T390 100V381Q390
404 385 411T361 419H328V452L487 475H532V72Q532 54 536 46ZM260 713H351L461 540H411L303 633L198 540H148L260 713Z" />
<glyph unicode="&#xfc;" glyph-name="udieresis" horiz-adv-x="617" d="M532 54T536 46T552 36T592 33V0H394V64H391Q318 -12 226 -12Q157 -12 120 26T83 143V381Q83 404 78 411T54 419H21V452L180 475H225V155Q225 100 244 75T299 50Q322 50 343 62T390 100V381Q390
404 385 411T361 419H328V452L487 475H532V72Q532 54 536 46ZM179 554T160 573T140 621Q140 649 159 669T207 689Q235 689 255 669T275 621Q275 593 255 574T207 554Q179 554 160 573ZM374 554T355 573T335 621Q335 649 354 669T402 689Q430 689 449 669T469 621Q469
593 450 574T402 554Q374 554 355 573Z" />
<glyph unicode="&#xfd;" glyph-name="yacute" horiz-adv-x="515" d="M507 470V437Q481 437 468 427T440 382L289 12Q275 -22 269 -39Q244 -101 227 -134T182 -189T114 -211Q73 -211 44 -185T14 -122Q14 -94 32 -74T80 -54Q108 -54 124 -71T141 -114Q141 -131 133
-142T124 -158Q124 -165 129 -169T142 -173Q178 -173 214 -77L235 -21L63 396Q55 416 49 424T31 434T-6 437V470H260V437H229Q209 437 209 419Q209 416 213 402L303 160H305L399 407Q401 415 401 419Q401 437 381 437H348V470H507ZM236 716Q253 752 289 752Q308
752 322 739T336 708Q336 697 332 688T312 660L208 547H158L236 716Z" />
<glyph unicode="&#xfe;" glyph-name="thorn" horiz-adv-x="589" d="M452 481T502 422T553 248Q553 122 489 55T307 -12Q260 -12 217 4V-117Q217 -139 221 -149T239 -163T282 -167V-200H12V-167Q42 -167 55 -164T72 -150T76 -117V598Q76 619 70 625T42 632H14V666L174
690H217V425Q276 481 361 481Q452 481 502 422ZM354 24T379 72T404 229Q404 323 379 374T303 425Q259 425 217 378V66Q255 24 299 24Q354 24 379 72Z" />
<glyph unicode="&#xff;" glyph-name="ydieresis" horiz-adv-x="515" d="M507 470V437Q481 437 468 427T440 382L289 12Q275 -22 269 -39Q244 -101 227 -134T182 -189T114 -211Q73 -211 44 -185T14 -122Q14 -94 32 -74T80 -54Q108 -54 124 -71T141 -114Q141 -131
133 -142T124 -158Q124 -165 129 -169T142 -173Q178 -173 214 -77L235 -21L63 396Q55 416 49 424T31 434T-6 437V470H260V437H229Q209 437 209 419Q209 416 213 402L303 160H305L399 407Q401 415 401 419Q401 437 381 437H348V470H507ZM121 554T102 573T82 621Q82
649 101 669T149 689Q177 689 197 669T217 621Q217 593 197 574T149 554Q121 554 102 573ZM316 554T297 573T277 621Q277 649 296 669T344 689Q372 689 391 669T411 621Q411 593 392 574T344 554Q316 554 297 573Z" />
<glyph unicode="&#x2013;" glyph-name="endash" horiz-adv-x="416" d="M0 306H416V230H0V306Z" />
<glyph unicode="&#x2014;" glyph-name="emdash" horiz-adv-x="859" d="M0 306H859V230H0V306Z" />
<glyph unicode="&#x2018;" glyph-name="quoteleft" horiz-adv-x="309" d="M124 423T101 446T78 520Q78 584 114 630T213 686L217 654Q193 651 170 636T146 598Q146 587 151 583T169 575Q233 557 233 501Q233 468 213 446T157 423Q124 423 101 446Z" />
<glyph unicode="&#x2019;" glyph-name="quoteright" horiz-adv-x="309" d="M93 454Q118 458 141 473T164 510Q164 521 159 525T141 533Q77 551 77 608Q77 641 97 663T153 686Q186 686 209 663T232 588Q232 525 196 479T97 423L93 454Z" />
<glyph unicode="&#x201a;" glyph-name="quotesinglbase" horiz-adv-x="309" d="M93 -88Q117 -84 140 -69T164 -32Q164 -21 159 -17T141 -9Q77 9 77 66Q77 99 97 121T153 144Q186 144 209 121T232 47Q232 -17 196 -63T97 -119L93 -88Z" />
<glyph unicode="&#x201c;" glyph-name="quotedblleft" horiz-adv-x="476" d="M110 423T87 446T64 520Q64 584 100 630T199 686L203 654Q179 651 156 636T132 598Q132 587 137 583T155 575Q219 557 219 501Q219 468 199 446T143 423Q110 423 87 446ZM303 423T280
446T257 521Q257 584 293 630T392 686L396 655Q371 651 348 636T325 599Q325 588 330 584T348 576Q412 558 412 501Q412 468 392 446T336 423Q303 423 280 446Z" />
<glyph unicode="&#x201d;" glyph-name="quotedblright" horiz-adv-x="476" d="M80 454Q105 458 128 473T151 510Q151 521 146 525T128 533Q64 551 64 608Q64 641 84 663T140 686Q173 686 196 663T219 588Q219 525 183 479T84 423L80 454ZM273 455Q297 458 320
473T344 511Q344 522 339 526T321 534Q257 552 257 608Q257 641 277 663T333 686Q366 686 389 663T412 589Q412 525 376 479T277 423L273 455Z" />
<glyph unicode="&#x201e;" glyph-name="quotedblbase" horiz-adv-x="476" d="M273 -88Q297 -84 320 -69T344 -32Q344 -21 339 -17T321 -9Q257 9 257 66Q257 99 277 121T333 144Q366 144 389 121T412 47Q412 -17 376 -63T277 -119L273 -88ZM80 -88Q104 -85 127
-70T151 -32Q151 -21 146 -17T128 -9Q64 9 64 65Q64 98 84 120T140 143Q174 143 196 120T219 46Q219 -18 183 -64T84 -119L80 -88Z" />
<glyph unicode="&#x2022;" glyph-name="bullet" horiz-adv-x="400" d="M155 167T118 189T59 249T37 333Q37 377 59 414T118 473T200 495Q245 495 282 473T342 414T364 331Q364 286 342 249T283 189T200 167Q155 167 118 189Z" />
<glyph unicode="&#x2039;" glyph-name="guilsinglleft" horiz-adv-x="311" d="M41 243L242 458H272L189 243L272 29H241L41 243Z" />
<glyph unicode="&#x203a;" glyph-name="guilsinglright" horiz-adv-x="311" d="M122 243L39 458H68L270 243L69 29H39L122 243Z" />
</font>
</defs>
</svg>
