<?xml version="1.0" standalone="no"?>
<!DOCTYPE svg PUBLIC "-//W3C//DTD SVG 1.1//EN" "http://www.w3.org/Graphics/SVG/1.1/DTD/svg11.dtd">
<svg xmlns="http://www.w3.org/2000/svg">
<defs >
<font id="FrankRuhlLibre" horiz-adv-x="506" ><font-face
    font-family="Frank Ruhl Libre"
    units-per-em="1000"
    panose-1="0 0 5 0 0 0 0 0 0 0"
    ascent="957"
    descent="-334"
    alphabetic="0" />
<glyph unicode=" " glyph-name="space" horiz-adv-x="239" />
<glyph unicode="!" glyph-name="exclam" horiz-adv-x="285" d="M94 541Q89 591 89 611Q89 639 101 656T143 674Q198 674 198 608Q198 599 193 541L162 178H125L94 541ZM117 -10T101 6T85 48Q85 72 101 89T142 107Q167 107 183 90T200 48Q199 23 183 7T142 -10Q117
-10 101 6Z" />
<glyph unicode="&quot;" glyph-name="quotedbl" horiz-adv-x="364" d="M103 465T100 470T94 485L78 588Q73 615 73 635Q73 652 82 663T112 675Q151 675 151 635Q151 609 147 588L130 485Q129 475 126 470T112 465Q103 465 100 470ZM235 465T233 485L216 588Q212
620 212 635Q212 675 251 675Q290 675 290 635Q290 615 285 588L269 485Q267 465 251 465Q235 465 233 485Z" />
<glyph unicode="#" glyph-name="numbersign" horiz-adv-x="497" d="M382 398L362 252H447V208H356L327 0H277L306 208H161L132 0H82L111 208H24V252H117L137 398H50V441H143L173 660H223L193 441H338L368 660H418L388 441H473V398H382ZM332 398H187L167 252H312L332 398Z" />
<glyph unicode="$" glyph-name="dollar" horiz-adv-x="527" d="M481 91T423 45T281 -7V-97H239V-7Q164 -3 108 30T52 118Q52 146 67 161T107 177Q131 177 146 163T161 125Q161 112 157 104T144 88Q134 78 134 71Q134 56 167 42T239 24V304L212 316Q136 349 97
392T57 502Q57 580 108 620T239 665V732H281V666Q356 662 404 631T453 546Q453 517 438 502T399 487Q376 487 361 501T346 540Q346 551 350 558T362 574T370 590Q370 607 345 620T281 636V385L311 372Q392 337 436 294T481 179Q481 91 423 45ZM143 479T165 452T239
403V635Q143 624 143 526Q143 479 165 452ZM335 34T364 69T393 155Q393 201 366 230T281 285V26Q335 34 364 69Z" />
<glyph unicode="%" glyph-name="percent" horiz-adv-x="859" d="M157 323T116 371T75 498Q75 576 116 624T221 672Q285 672 326 625T367 498Q367 419 327 371T221 323Q157 323 116 371ZM591 672H634L263 -12H221L591 672ZM264 348T280 387T297 498Q297 567 280
607T220 647Q178 647 161 607T144 498Q144 427 160 388T220 348Q264 348 280 387ZM574 -11T533 37T492 164Q492 242 533 290T638 338Q702 338 743 290T784 164Q784 85 744 37T638 -11Q574 -11 533 37ZM682 14T698 53T715 164Q715 233 698 273T638 313Q596 313 579
273T562 164Q562 93 578 54T638 14Q682 14 698 53Z" />
<glyph unicode="&amp;" glyph-name="ampersand" horiz-adv-x="722" d="M600 27T679 27V0H629Q568 0 530 11T461 49Q384 -12 262 -12Q155 -12 96 32T36 154Q36 219 75 262T183 345Q140 393 124 432T108 507Q108 588 156 630T281 672Q351 672 395 638T439 543Q439
504 419 473T368 419T284 364L496 132Q523 164 538 201T553 275Q553 299 537 312T469 325V350H667V325Q637 325 622 320T601 305T591 277Q562 171 518 109Q600 27 679 27ZM236 643T211 616T185 540Q185 506 202 471T261 390Q324 429 348 461T372 539Q372 592 348
617T281 643Q236 643 211 616ZM127 117T175 79T300 41Q371 41 432 77L209 317Q167 287 147 254T127 180Q127 117 175 79Z" />
<glyph unicode="&apos;" glyph-name="quotesingle" horiz-adv-x="212" d="M97 465T94 470T88 485L72 588Q67 615 67 635Q67 652 76 663T106 675Q145 675 145 635Q145 620 141 588L124 485Q122 475 119 470T106 465Q97 465 94 470Z" />
<glyph unicode="(" glyph-name="parenleft" horiz-adv-x="333" d="M182 -117T134 -3T85 266Q85 420 133 535T308 657L309 635Q234 615 193 510T152 266Q152 177 170 98T223 -35T309 -104L308 -124Q182 -117 134 -3Z" />
<glyph unicode=")" glyph-name="parenright" horiz-adv-x="333" d="M24 -104Q74 -90 109 -36T163 98T181 266Q181 404 140 509T24 635L25 657Q151 650 199 535T248 266Q248 112 200 -2T25 -124L24 -104Z" />
<glyph unicode="*" glyph-name="asterisk" horiz-adv-x="344" d="M156 342T146 348T138 366L154 470L151 472L68 405Q63 402 58 402Q42 402 31 423Q23 437 23 447Q23 459 34 464L133 503V506L35 545Q23 550 23 562Q23 573 31 586Q36 596 43 602T57 608Q62 608
68 604L152 537L154 539L138 644Q137 655 146 661T171 667Q188 667 197 661T205 644L190 538L192 536L276 604Q282 608 286 608Q293 608 300 602T312 586Q320 573 320 562Q320 549 309 545L209 505V503L309 464Q320 460 320 448Q320 437 312 423Q300 402 286 402Q280
402 276 406L192 472L190 471L205 366Q207 355 198 349T171 342Q156 342 146 348Z" />
<glyph unicode="+" glyph-name="plus" horiz-adv-x="532" d="M236 208H33V265H236V469H295V265H498V208H295V4H236V208Z" />
<glyph unicode="," glyph-name="comma" horiz-adv-x="264" d="M82 -81Q110 -74 127 -60T145 -22Q145 -6 128 -2Q79 9 79 53Q79 79 95 94T136 110Q162 110 178 91T195 32Q195 -18 169 -57T86 -107L82 -81Z" />
<glyph unicode="-" glyph-name="hyphen" horiz-adv-x="343" d="M58 298H284V231H58V298Z" />
<glyph unicode="." glyph-name="period" horiz-adv-x="278" d="M116 -9T100 7T83 47Q83 70 99 86T139 103Q162 103 178 87T195 47Q195 24 179 8T139 -9Q116 -9 100 7Z" />
<glyph unicode="/" glyph-name="slash" horiz-adv-x="320" d="M260 671H318L60 -12H1L260 671Z" />
<glyph unicode="0" glyph-name="zero" horiz-adv-x="563" d="M168 -11T111 84T53 330Q53 480 110 575T281 671Q394 671 452 576T510 330Q510 180 452 85T281 -11Q168 -11 111 84ZM331 21T359 53T398 151T410 330Q410 442 399 508T359 607T281 640Q231 640 203
608T164 509T152 330Q152 214 163 148T202 52T281 21Q331 21 359 53Z" />
<glyph unicode="1" glyph-name="one" horiz-adv-x="470" d="M108 31H163Q195 31 205 40T216 78V580Q152 547 73 514V553Q114 572 163 605T236 660H304V78Q304 50 315 41T357 31H412V0H108V31Z" />
<glyph unicode="2" glyph-name="two" horiz-adv-x="546" d="M48 10Q48 71 94 134T223 270Q270 311 297 339T344 409T365 505Q365 569 334 604T247 640Q210 640 187 624T163 586Q163 576 172 563Q182 547 182 533Q182 506 167 492T127 477Q101 477 85 493T68 542Q68
604 126 638T263 672Q359 672 411 624T464 491Q464 439 445 402T393 338T301 270Q213 208 170 163T122 83H357Q394 83 413 90T441 109T458 146H487L451 0H48V10Z" />
<glyph unicode="3" glyph-name="three" horiz-adv-x="545" d="M156 -11T100 22T43 113Q43 144 59 161T103 179Q126 179 140 165T155 126Q155 115 153 108T145 93Q138 83 138 73Q138 51 163 36T230 21Q299 21 335 64T372 187Q372 343 227 343L183 341V381Q211 379
227 379Q285 379 314 416T344 510Q344 566 316 602T236 639Q202 639 177 625T152 590Q152 583 160 569Q170 553 170 536Q170 512 156 499T117 485Q90 485 74 501T58 547Q58 605 115 638T252 671Q336 671 389 632T442 515Q443 455 410 417T313 367V364Q353 362 389
342T449 281T472 185Q472 93 410 41T241 -11Q156 -11 100 22Z" />
<glyph unicode="4" glyph-name="four" horiz-adv-x="535" d="M234 31H281Q300 31 307 40T314 70V184H33V237Q179 466 334 668H401V249H497V184H401V70Q401 49 407 40T432 31H471V0H234V31ZM314 249V572H310Q190 413 86 249H314Z" />
<glyph unicode="5" glyph-name="five" horiz-adv-x="529" d="M146 -11T100 18T53 100Q53 131 69 147T112 164Q135 164 150 150T165 111Q165 100 162 93T154 77Q153 76 150 70T147 57Q147 38 169 30T224 21Q295 21 332 63T369 189Q369 273 335 315T233 358Q196
358 168 344T112 302H88L117 660H370Q394 660 403 665T418 684H445L417 581H143L121 356L123 355Q191 407 279 407Q370 407 418 351T466 210Q466 146 438 96T355 17T224 -11Q146 -11 100 18Z" />
<glyph unicode="6" glyph-name="six" horiz-adv-x="557" d="M172 -12T113 66T53 283Q53 405 100 493T231 629T426 680V649Q348 646 288 605T192 491T150 321H152Q180 371 221 397T314 424Q364 423 406 398T473 325T499 210Q499 147 473 97T398 17T281 -12Q172
-12 113 66ZM341 21T372 67T403 194Q403 277 371 319T279 362Q220 362 185 322T150 207Q150 131 185 76T284 21Q341 21 372 67Z" />
<glyph unicode="7" glyph-name="seven" horiz-adv-x="520" d="M149 -12T149 58Q149 185 271 377Q369 531 407 581H148Q115 581 101 571T75 533L67 514H38L55 660H462V595Q435 563 394 497T328 387Q293 323 276 269T254 174T248 77Q247 69 247 54Q246 22 235 5T198
-12Q149 -12 149 58Z" />
<glyph unicode="8" glyph-name="eight" horiz-adv-x="533" d="M162 -11T105 31T48 149Q48 206 83 250T192 334Q129 372 101 412T73 501Q73 556 102 594T179 652T277 671Q347 671 401 637T455 531Q455 434 335 363Q407 321 440 280T474 177Q474 122 447 79T370
13T252 -11Q162 -11 105 31ZM394 441T394 523Q394 574 361 606T273 639Q222 639 188 611T153 535Q153 506 168 484T215 439T307 381Q394 441 394 523ZM319 22T356 54T394 143Q394 174 379 197T329 245T218 317Q169 288 139 247T109 156Q109 95 151 59T258 22Q319
22 356 54Z" />
<glyph unicode="9" glyph-name="nine" horiz-adv-x="557" d="M131 8Q209 12 269 53T365 168T407 338H405Q377 288 336 262T244 235Q195 236 152 262T84 337T58 451Q58 512 84 562T159 641T276 671Q385 671 444 593T504 376Q504 254 457 166T326 30T131 -21V8ZM338
297T372 337T407 452Q407 528 373 583T274 638Q217 638 186 592T154 467Q154 385 187 341T280 297Q338 297 372 337Z" />
<glyph unicode=":" glyph-name="colon" horiz-adv-x="278" d="M116 285T100 301T83 340Q83 363 99 380T139 397Q163 397 179 381T195 340Q195 317 179 301T139 285Q116 285 100 301ZM116 -9T100 7T83 47Q83 70 99 86T139 103Q163 103 179 87T195 47Q195 24 179
8T139 -9Q116 -9 100 7Z" />
<glyph unicode=";" glyph-name="semicolon" horiz-adv-x="273" d="M116 285T100 301T83 340Q83 363 99 380T139 397Q162 397 178 380T195 340Q195 317 179 301T139 285Q116 285 100 301ZM84 -81Q112 -74 129 -60T147 -22Q147 -6 130 -2Q81 9 81 53Q81 79 97 94T138
110Q164 110 180 91T197 32Q197 -18 171 -57T88 -107L84 -81Z" />
<glyph unicode="&lt;" glyph-name="less" horiz-adv-x="590" d="M60 205V264L529 476V412L137 235L529 57V-7L60 205Z" />
<glyph unicode="=" glyph-name="equal" horiz-adv-x="536" d="M33 359H502V300H33V359ZM33 169H502V110H33V169Z" />
<glyph unicode="&gt;" glyph-name="greater" horiz-adv-x="590" d="M61 57L452 235L61 412V476L530 264V205L61 -7V57Z" />
<glyph unicode="?" glyph-name="question" horiz-adv-x="467" d="M186 217Q186 272 202 307T252 384Q284 425 299 457T315 539Q315 589 293 619T230 649Q200 649 174 637T147 602Q147 594 150 588T159 577Q167 569 171 561T175 539Q175 516 162 503T124 490Q98
490 84 508T70 556Q70 614 119 644T236 674Q308 674 358 642T408 537Q408 498 395 468T362 415T310 362Q267 322 245 291T223 217V178H186V217ZM184 -9T168 7T152 47Q152 70 168 86T208 103Q231 103 247 87T264 47Q264 24 248 8T208 -9Q184 -9 168 7Z" />
<glyph unicode="@" glyph-name="at" horiz-adv-x="740" d="M264 -12T191 23T77 127T35 291Q35 399 86 484T223 616T410 664Q497 664 564 628T668 530T705 393Q705 329 677 276T602 191T501 159Q464 159 444 176T424 221Q424 235 428 247L441 290L438 292Q409 231
364 195T271 159Q239 159 221 179T202 237Q202 285 227 349T305 460T434 507Q467 507 493 491L498 503H558L493 260Q489 248 489 234Q489 197 532 197Q569 197 599 225T647 299T665 391Q665 460 632 512T542 592T413 620Q324 620 252 575T138 454T97 293Q97 230
123 170T210 70T372 29Q454 29 533 54L540 33Q503 11 454 0T357 -12Q264 -12 191 23ZM348 200T390 251T454 369L486 466Q462 481 438 481Q392 481 355 439T296 340T274 248Q274 225 283 213T312 200Q348 200 390 251Z" />
<glyph unicode="A" glyph-name="A" horiz-adv-x="646" d="M575 49T588 39T638 29V0H409V29H447Q476 29 476 54Q476 64 473 74L410 250H188L125 71Q121 57 121 51Q121 29 149 29H185V0H7V29Q33 29 47 34T69 52T87 91L299 660H355L564 84Q575 49 588 39ZM398 284L300
556H297L201 284H398Z" />
<glyph unicode="B" glyph-name="B" horiz-adv-x="618" d="M50 29Q88 29 103 33T123 48T127 89V571Q127 599 123 610T103 626T50 631V660H301Q414 660 478 623T543 508Q543 452 509 413T412 360V359Q485 346 529 300T573 178Q573 0 318 0H50V29ZM293 372Q446 372
446 498Q446 626 284 626Q255 626 241 622T223 609T219 580V372H293ZM380 33T425 68T470 179Q470 254 426 295T296 337H219V106Q219 64 236 49T301 33Q380 33 425 68Z" />
<glyph unicode="C" glyph-name="C" horiz-adv-x="651" d="M216 -12T135 77T53 322Q53 486 137 579T374 672Q415 672 444 665T503 645Q526 635 537 635Q555 635 561 649L564 660H591L601 480H574Q533 638 381 638Q298 638 249 590T179 471T159 331Q159 250 182
180T255 66T381 22Q442 22 481 42T542 92T580 161L605 148Q581 82 528 35T366 -12Q216 -12 135 77Z" />
<glyph unicode="D" glyph-name="D" horiz-adv-x="725" d="M50 29Q88 29 103 33T123 48T127 89V571Q127 600 123 611T103 627T50 631V660H347Q504 658 588 577T672 341Q672 173 581 87T323 0H50V29ZM565 33T565 337Q565 473 507 549T323 626Q275 626 254 623T226
610T219 577V110Q219 78 228 62T257 39T314 33Q565 33 565 337Z" />
<glyph unicode="E" glyph-name="E" horiz-adv-x="587" d="M50 29Q88 29 103 33T123 48T127 89V571Q127 600 123 611T103 627T50 631V660H515V500H489Q480 553 467 578T426 615T343 626H255Q232 626 226 620T219 590V363H333Q371 363 389 370T413 394T426 446H450V242H426Q420
277 414 293T389 317T333 325H219V111Q219 76 228 61T261 39T341 33Q404 33 438 44T491 84T523 172H549L538 0H50V29Z" />
<glyph unicode="F" glyph-name="F" horiz-adv-x="548" d="M50 29Q88 29 103 33T123 49T127 89V571Q127 599 123 610T103 626T50 631V660H517V503H490Q481 555 468 580T427 615T342 626H256Q233 626 227 620T220 590V348H338Q376 348 394 356T419 380T432 432H455V225H432Q426
261 419 277T394 301T338 309H220V89Q220 61 225 50T248 34T312 29V0H50V29Z" />
<glyph unicode="G" glyph-name="G" horiz-adv-x="664" d="M264 -12T195 29T90 145T53 324Q53 429 91 507T200 629T371 672Q414 672 443 665T501 646Q528 635 539 635Q557 635 562 649L567 660H591L601 480H574Q558 543 513 590T383 638Q299 638 249 590T179 471T159
328Q159 248 183 179T258 66T389 22Q434 22 468 37T508 91V223Q508 250 496 261T452 272H435V301H651V272H637Q618 272 609 263T600 230V-2H581Q576 11 569 17T548 24Q536 24 501 13Q467 2 435 -5T360 -12Q264 -12 195 29Z" />
<glyph unicode="H" glyph-name="H" horiz-adv-x="759" d="M50 29Q88 29 103 33T123 47T127 85V574Q127 600 123 611T103 626T50 631V660H296V631Q259 631 244 627T224 611T219 574V363H541V574Q541 600 537 611T517 626T464 631V660H710V631Q673 630 658 626T638
611T633 574V85Q633 59 637 48T657 33T710 29V0H464V29Q502 29 517 33T537 47T541 85V325H219V85Q219 59 223 48T243 33T296 29V0H50V29Z" />
<glyph unicode="I" glyph-name="I" horiz-adv-x="345" d="M50 29Q88 29 103 33T123 49T127 89V570Q127 599 123 610T103 626T50 631V660H296V631Q258 631 243 627T224 611T219 570V89Q219 61 223 50T243 34T296 29V0H50V29Z" />
<glyph unicode="J" glyph-name="J" horiz-adv-x="379" d="M27 -210T-5 -185T-38 -123Q-38 -93 -23 -76T21 -59Q43 -59 58 -72T73 -108Q73 -120 70 -127T61 -141T55 -156Q55 -166 64 -171T87 -177Q137 -177 155 -134T174 -6V570Q174 599 170 610T150 626T97 631V660H343V631Q305
631 290 627T271 611T266 570V79Q266 -59 226 -134T78 -210Q27 -210 -5 -185Z" />
<glyph unicode="K" glyph-name="K" horiz-adv-x="639" d="M544 74T572 52T633 29V0H394V29H412Q434 29 434 48Q434 60 422 78L242 329L219 306V89Q219 61 223 50T243 34T296 29V0H50V29Q88 29 103 33T123 49T127 89V570Q127 599 123 610T103 626T50 631V660H296V631Q258
631 243 627T224 611T219 570V348L457 590Q472 605 472 618Q472 631 453 631H422V660H612V631Q576 631 548 614T469 546L308 391L513 119Q544 74 572 52Z" />
<glyph unicode="L" glyph-name="L" horiz-adv-x="576" d="M50 29Q88 29 103 33T123 48T127 89V571Q127 599 123 610T103 626T50 631V660H298V631Q260 631 244 627T224 611T219 571V114Q219 77 228 61T262 39T339 34Q398 34 430 45T480 84T511 171H537L526 0H50V29Z" />
<glyph unicode="M" glyph-name="M" horiz-adv-x="838" d="M38 29H67Q97 29 105 39T114 82V574Q114 600 109 611T89 626T38 631V660H214L416 169H417L619 660H787V631Q751 630 736 626T716 611T711 574V85Q711 60 716 49T736 33T787 29V0H543V29Q580 29 596 33T616
49T621 85V570H619L397 26H379L154 570H152V82Q152 57 154 47T167 33T202 29H239V0H38V29Z" />
<glyph unicode="N" glyph-name="N" horiz-adv-x="702" d="M158 562H156V81Q156 53 167 41T206 29H245V0H41V29H70Q94 29 105 41T117 81V574Q117 600 112 611T92 626T40 631V660H208L545 148H548V583Q548 631 497 631H458V660H662V631H632Q586 631 586 583V-6H537L158
562Z" />
<glyph unicode="O" glyph-name="O" horiz-adv-x="710" d="M204 -12T129 81T53 329Q53 482 128 577T355 672Q508 672 583 577T658 329Q658 175 583 82T355 -12Q204 -12 129 81ZM464 22T508 109T552 329Q552 469 509 553T356 638Q246 638 203 554T160 329Q160 197
204 110T356 22Q464 22 508 109Z" />
<glyph unicode="P" glyph-name="P" horiz-adv-x="570" d="M50 29Q86 29 102 33T122 49T127 85V574Q127 600 122 611T102 626T50 631V660H298Q419 660 478 609T538 472Q538 381 476 325T288 268H219V85Q219 59 224 48T248 33T307 29V0H50V29ZM282 305Q438 305 438
466Q438 546 399 585T279 625Q242 625 231 617T219 590V305H282Z" />
<glyph unicode="Q" glyph-name="Q" horiz-adv-x="710" d="M540 -115T568 -92L583 -112Q559 -134 533 -147T468 -160Q398 -160 360 -116T317 -10Q185 2 119 93T53 328Q53 481 128 576T355 672Q508 672 583 577T658 328Q658 193 599 103T421 -7Q424 -51 445 -83T506
-115Q540 -115 568 -92ZM160 198T203 110T356 22Q465 22 508 110T552 334Q552 638 356 638Q160 638 160 334Q160 198 203 110Z" />
<glyph unicode="R" glyph-name="R" horiz-adv-x="605" d="M50 29Q86 29 102 33T122 49T127 85V574Q127 600 122 611T102 626T50 631V660H319Q418 660 474 619T530 497Q530 429 492 387T388 330V328Q439 313 463 279T499 175L505 138Q515 82 533 56T589 29V0H459Q433
24 419 92L395 215Q385 265 359 287T280 310H219V85Q219 60 224 49T246 33T301 29V0H50V29ZM282 346Q358 346 394 379T430 485Q430 557 393 591T280 625Q242 625 231 617T219 588V346H282Z" />
<glyph unicode="S" glyph-name="S" horiz-adv-x="521" d="M46 192H72Q83 122 130 72T250 22Q313 22 348 59T384 152Q384 199 356 230T269 287L223 306Q140 341 97 384T54 500Q54 584 111 628T257 672Q314 672 358 651Q376 644 383 644Q391 644 395 650T402 669H424L434
492H408Q398 558 361 598T259 638Q206 638 175 610T143 525Q143 477 171 449T257 396L305 376Q358 353 393 330T452 270T475 178Q475 90 415 39T251 -12Q213 -12 188 -7T135 9Q117 17 107 17Q96 17 91 10T84 -8H59L46 192Z" />
<glyph unicode="T" glyph-name="T" horiz-adv-x="576" d="M147 29Q195 29 213 33T237 48T242 89V627H188Q133 627 106 617T67 580T46 498H20V660H556V498H530Q521 553 509 579T470 616T389 627H334V89Q334 60 339 49T364 33T429 29V0H147V29Z" />
<glyph unicode="U" glyph-name="U" horiz-adv-x="734" d="M240 -12T180 47T120 232V571Q120 599 116 610T96 626T43 631V660H289V631Q252 631 237 627T217 611T212 571V226Q212 131 251 77T369 22Q446 22 485 76T525 226V571Q525 599 521 610T501 626T448 631V660H694V631Q656
631 641 627T621 611T617 571V232Q617 107 556 48T367 -12Q240 -12 180 47Z" />
<glyph unicode="V" glyph-name="V" horiz-adv-x="650" d="M90 576Q81 600 73 611T50 627T9 631V660H249V631H200Q176 631 176 614Q176 610 180 596L348 113L351 112L517 594Q520 605 520 613Q520 622 515 626T496 631H449V660H640V631Q606 631 591 621T563 579L349
0H292L90 576Z" />
<glyph unicode="W" glyph-name="W" horiz-adv-x="912" d="M91 573Q84 599 77 611T56 627T14 631V660H239V631H197Q185 631 179 628T173 615Q173 612 177 594L303 123H306L445 644H500L652 122H656L773 591Q776 603 776 612Q776 622 771 626T753 631H707V660H903V631Q873
631 858 625T833 605T814 560L658 0H599L449 510H447L307 0H246L91 573Z" />
<glyph unicode="X" glyph-name="X" horiz-adv-x="658" d="M553 60T564 49T593 34T643 29V0H377V29H427Q449 29 449 46Q449 55 443 64L303 292H299L162 63Q158 55 158 47Q158 39 163 34T177 29H234V0H16V29Q58 29 76 38T117 81L280 327L127 574Q111 599 100 610T73
626T28 631V660H268V631H224Q207 631 207 618Q207 609 214 598L336 401H339L466 600Q474 613 474 620Q474 631 456 631H411V660H610V631Q569 631 550 621T504 576L358 369L538 84Q553 60 564 49Z" />
<glyph unicode="Y" glyph-name="Y" horiz-adv-x="619" d="M604 660V631Q575 631 560 627T535 611T511 573L361 270V89Q361 61 366 50T389 34T453 29V0H180V29Q224 29 242 33T266 49T271 89V258L104 582Q89 612 73 621T21 631V660H258V631H209Q192 631 192 617Q192
611 197 601L338 315H340L474 598Q479 610 479 616Q479 631 461 631H410V660H604Z" />
<glyph unicode="Z" glyph-name="Z" horiz-adv-x="573" d="M24 29L437 627H272Q207 627 174 617T126 578T103 492H76V660H543V632L128 33H314Q390 33 430 44T490 86T522 176H550L539 0H24V29Z" />
<glyph unicode="[" glyph-name="bracketleft" horiz-adv-x="292" d="M99 660H253V631H163V-95H253V-125H99V660Z" />
<glyph unicode="\" glyph-name="backslash" horiz-adv-x="328" d="M1 671H63L326 -12H264L1 671Z" />
<glyph unicode="]" glyph-name="bracketright" horiz-adv-x="292" d="M38 -95H128V631H38V660H192V-125H38V-95Z" />
<glyph unicode="^" glyph-name="asciicircum" horiz-adv-x="583" d="M264 660H323L498 309H434L294 590L153 309H89L264 660Z" />
<glyph unicode="_" glyph-name="underscore" horiz-adv-x="497" d="M15 -70H482V-114H15V-70Z" />
<glyph unicode="`" glyph-name="grave" horiz-adv-x="385" d="M116 674Q101 691 97 699T92 718Q92 733 103 744T128 755Q142 755 151 747T170 722L247 562H219L116 674Z" />
<glyph unicode="a" glyph-name="a" horiz-adv-x="490" d="M479 16Q460 4 440 -3T388 -10Q358 -10 343 2T324 54Q287 22 252 6T174 -11Q119 -11 85 14T50 89Q50 159 121 211T324 284V342Q324 393 304 418T233 443Q198 443 170 430T142 404Q142 397 151 390T166
375T172 352Q172 331 160 319T126 306Q103 306 90 320T76 359Q76 390 96 417T158 461T260 478Q336 478 372 447T408 339V102Q408 63 416 49T444 34Q456 34 472 41L479 16ZM140 78T160 61T218 43Q246 43 271 55T324 87V252Q231 232 186 199T140 113Q140 78 160 61Z"
/>
<glyph unicode="b" glyph-name="b" horiz-adv-x="563" d="M422 479T468 420T515 244Q515 113 459 51T305 -12Q230 -12 169 35H161L131 0H100V595Q100 624 94 632T65 641H34V671L157 692H185V430H187Q249 479 334 479Q422 479 468 420ZM356 20T388 70T421 230Q421
438 299 438Q266 438 239 424T185 387V70Q233 20 293 20Q356 20 388 70Z" />
<glyph unicode="c" glyph-name="c" horiz-adv-x="483" d="M161 -11T105 53T49 230Q49 342 105 410T274 479Q347 479 394 450T441 370Q441 344 428 329T390 314Q365 314 352 327T339 363Q339 375 342 383T353 400T360 417Q360 430 340 439T287 448Q219 448 181
401T143 241Q143 29 287 29Q383 29 423 118L447 104Q434 63 392 26T266 -11Q161 -11 105 53Z" />
<glyph unicode="d" glyph-name="d" horiz-adv-x="549" d="M529 29V0H389L382 48Q350 22 314 5T229 -12Q141 -12 95 49T48 226Q48 355 104 417T260 479Q325 479 376 440V444H379V596Q379 623 373 632T349 641H313V670L436 692H463V76Q463 48 471 39T503 29H529ZM142
30T264 30Q297 30 323 45T379 87V397Q330 448 271 448Q207 448 175 398T142 238Q142 30 264 30Z" />
<glyph unicode="e" glyph-name="e" d="M460 230H142Q144 137 175 83T287 29Q345 29 379 59T429 136L457 124Q436 63 392 26T261 -11Q154 -11 102 51T49 229Q49 348 103 413T262 479Q460 479 460 239V230ZM367 262Q367 357 344 402T263 448Q204 448 175 402T142 262H367Z" />
<glyph unicode="f" glyph-name="f" horiz-adv-x="309" d="M35 29Q68 29 82 33T100 47T104 83V433H34V468H104V532Q104 612 141 658T254 705Q311 705 340 680T370 617Q370 595 358 581T324 567Q303 567 291 578T278 611Q278 626 287 638T296 656Q296 664 285 669T259
675Q226 675 208 649T189 572V468H301V433H189V82Q189 56 194 46T216 33T275 29V0H35V29Z" />
<glyph unicode="g" glyph-name="g" horiz-adv-x="566" d="M504 479T524 461T545 415Q545 394 534 381T504 368Q486 368 475 378T464 402Q464 409 466 416T468 427Q468 433 462 438T447 443Q429 443 406 412Q433 375 433 322Q433 242 379 205T244 167Q208 167 177
174Q129 148 129 118Q129 100 149 88T219 76H291Q385 76 428 44T472 -51Q472 -132 407 -172T240 -212Q149 -212 93 -181T36 -88Q36 -54 56 -31T122 11Q92 21 75 41T58 87Q58 114 80 139T144 185Q55 223 55 321Q55 401 111 440T246 479Q288 479 325 468T388 433Q423
479 472 479Q504 479 524 461ZM298 199T321 231T345 327Q345 384 323 415T247 446Q193 446 170 414T147 320Q147 263 168 231T242 199Q298 199 321 231ZM175 3Q142 -10 129 -32T115 -80Q115 -126 152 -153T252 -181Q317 -181 357 -153T397 -72Q397 -33 368 -15T269
3H175Z" />
<glyph unicode="h" glyph-name="h" horiz-adv-x="579" d="M477 58T481 48T499 33T546 29V0H327V29Q358 29 371 33T389 47T393 81V324Q393 372 371 401T299 431Q262 431 234 412T181 357V81Q181 57 185 47T202 33T247 29V0H28V29Q61 29 75 33T92 47T96 83V599Q96
625 90 633T67 642H33V672L153 692H181V404H184Q216 442 254 460T342 479Q477 479 477 335V83Q477 58 481 48Z" />
<glyph unicode="i" glyph-name="i" horiz-adv-x="296" d="M119 562T104 577T88 616Q88 640 103 656T143 672Q168 672 183 656T198 616Q198 593 183 578T143 562Q119 562 104 577ZM35 29Q68 29 82 33T99 47T103 83V381Q103 407 98 415T74 424H40V454L161 474H189V83Q189
57 193 47T210 33T257 29V0H35V29Z" />
<glyph unicode="j" glyph-name="j" horiz-adv-x="240" d="M86 561T71 576T55 616Q55 640 70 656T110 672Q134 672 149 656T165 617Q165 593 150 577T110 561Q86 561 71 576ZM-25 -212T-49 -193T-73 -143Q-73 -119 -60 -105T-27 -91Q-9 -91 3 -102T17 -133Q17 -142
13 -150T8 -164Q8 -173 15 -177T32 -181Q52 -181 60 -164T69 -108V381Q69 407 64 415T40 424H6V454L129 474H155V2Q155 -100 126 -156T20 -212Q-25 -212 -49 -193Z" />
<glyph unicode="k" glyph-name="k" horiz-adv-x="518" d="M516 29V0H322V29H337Q361 29 361 40Q361 47 341 76L226 231L188 190V83Q188 58 192 48T210 33T256 29V0H34V29Q67 29 81 33T99 47T103 83V599Q103 625 97 633T73 642H39V672L160 692H188V231L327 384Q351
411 351 425Q351 439 332 439H313V468H495V439H481Q442 439 412 420T345 360L280 289L414 110Q450 61 468 45T506 29H516Z" />
<glyph unicode="l" glyph-name="l" horiz-adv-x="281" d="M30 29Q63 29 77 33T95 47T99 83V599Q99 625 93 633T69 642H35V672L156 692H184V83Q184 58 188 48T206 33T252 29V0H30V29Z" />
<glyph unicode="m" glyph-name="m" horiz-adv-x="856" d="M754 58T758 47T776 33T823 29V0H604V29Q636 29 649 32T666 46T670 81V324Q670 373 650 402T585 431Q550 431 523 412T472 358V83Q472 58 476 48T493 33T538 29V0H322V29Q354 29 367 32T384 46T388 81V324Q388
373 368 402T303 431Q240 431 190 361V81Q190 56 194 46T211 32T255 29V0H36V29Q69 29 83 33T100 47T104 83V381Q104 407 98 415T75 424H41V454L159 474H187V402H188Q254 479 346 479Q396 479 427 457T468 398Q530 479 628 479Q692 479 723 444T754 335V83Q754
58 758 47Z" />
<glyph unicode="n" glyph-name="n" horiz-adv-x="587" d="M485 58T489 48T507 33T554 29V0H335V29Q367 29 380 32T397 46T401 81V324Q401 372 379 401T308 431Q269 431 242 413T190 360V81Q190 56 194 46T211 32T255 29V0H36V29Q69 29 83 33T100 47T104 83V381Q104
407 98 415T75 424H41V454L159 474H187V400H188Q222 440 261 459T350 479Q485 479 485 335V83Q485 58 489 48Z" />
<glyph unicode="o" glyph-name="o" horiz-adv-x="531" d="M48 -11T48 234Q48 355 102 417T266 480Q483 480 483 235Q483 -11 265 -11Q48 -11 48 234ZM390 21T390 230Q390 448 265 448Q203 448 172 394T141 234Q141 21 266 21Q390 21 390 230Z" />
<glyph unicode="p" glyph-name="p" horiz-adv-x="563" d="M423 479T469 420T515 245Q515 115 459 52T304 -12Q266 -12 238 -1T185 31V-117Q185 -142 189 -152T209 -167T259 -171V-200H32V-171Q66 -171 79 -168T96 -154T100 -117V385Q100 409 94 417T66 425H36V454L155
474H182V425Q208 447 246 463T333 479Q423 479 469 420ZM422 20T422 232Q422 331 392 384T300 438Q242 438 185 388V71Q232 20 293 20Q422 20 422 232Z" />
<glyph unicode="q" glyph-name="q" horiz-adv-x="537" d="M464 -142T468 -152T486 -167T532 -171V-200H307V-171Q341 -171 356 -167T375 -153T379 -117V38H375Q312 -12 229 -12Q142 -12 95 49T48 225Q48 352 105 415T263 479Q304 479 334 467T392 434L437 474H464V-117Q464
-142 468 -152ZM142 30T264 30Q297 30 324 44T379 82V396Q331 448 271 448Q142 448 142 237Q142 30 264 30Z" />
<glyph unicode="r" glyph-name="r" horiz-adv-x="395" d="M347 480T366 459T386 401Q386 371 372 354T329 337Q304 337 291 350T277 384Q277 396 281 404T293 421T301 435Q301 444 288 444Q269 444 248 425T210 374T190 303V83Q190 57 194 47T214 33T265 29V0H36V29Q69
29 83 33T100 47T104 83V381Q104 407 98 415T75 424H41V454L159 474H187V380H188Q210 422 238 451T311 480Q347 480 366 459Z" />
<glyph unicode="s" glyph-name="s" horiz-adv-x="441" d="M199 -11T180 -6T140 7Q117 16 105 16Q95 16 90 12T79 -3H60L50 162H70Q89 92 128 57T221 21Q265 21 291 42T318 103Q318 131 303 149T267 179T205 206L180 215Q119 240 91 267T62 343Q62 406 106 442T224
479Q248 479 263 476T297 467Q317 461 323 461Q333 461 337 465T342 474T344 479H362L369 332H349Q322 448 229 448Q188 448 162 428T135 376Q135 344 160 323T222 288L249 279Q324 253 359 221T395 134Q395 69 348 29T227 -11Q199 -11 180 -6Z" />
<glyph unicode="t" glyph-name="t" horiz-adv-x="303" d="M141 -11T113 13T84 94V436H11V466Q115 477 140 620H169V468H280V436H169V109Q169 68 181 51T219 33Q235 33 252 40T281 57L292 33Q262 11 240 0T182 -11Q141 -11 113 13Z" />
<glyph unicode="u" glyph-name="u" horiz-adv-x="583" d="M475 58T479 48T497 33T543 29V0H392V70H389V72Q324 -12 227 -12Q94 -12 94 131V383Q94 409 88 418T64 427H30V456L151 474H179V147Q179 97 201 67T271 37Q336 37 389 113L390 383Q390 409 384 418T360
427H326V456L447 474H475V83Q475 58 479 48Z" />
<glyph unicode="v" glyph-name="v" horiz-adv-x="492" d="M63 398Q53 423 41 431T-4 439V468H204V439H164Q145 439 145 422Q145 416 148 408L262 95H265L378 409Q380 417 380 421Q380 439 363 439H319V468H487V439Q455 439 442 431T419 398L261 0H213L63 398Z" />
<glyph unicode="w" glyph-name="w" horiz-adv-x="706" d="M60 399Q53 424 41 431T-2 439V468H194V439H163Q143 439 143 421Q143 415 146 406L232 94H234L339 460H392L506 94H508L589 404Q591 410 591 420Q591 430 585 434T566 439H525V468H698V439Q662 439 649
430T627 389L511 0H456L345 340H342L237 0H183L60 399Z" />
<glyph unicode="x" glyph-name="x" horiz-adv-x="495" d="M419 47T434 38T485 29V0H269V29H301Q318 29 318 42Q318 51 311 62L223 195L134 61Q129 53 129 45Q129 38 134 34T148 29H177V0H10V29Q42 29 62 38T100 72L207 219L84 405Q69 426 56 432T14 439V468H206V439H184Q168
439 168 426Q168 420 173 412L255 290L339 414Q345 422 345 428Q345 439 330 439H299V468H456V439Q422 439 406 432T374 404L271 267L403 71Q419 47 434 38Z" />
<glyph unicode="y" glyph-name="y" horiz-adv-x="483" d="M476 468V439Q450 439 438 435T418 421T402 388L220 -82Q201 -131 189 -155T156 -195T103 -211Q65 -211 42 -191T18 -140Q18 -116 33 -100T69 -84Q87 -84 100 -95T114 -127Q114 -140 107 -151T100 -168Q100
-180 117 -180Q137 -180 150 -163T181 -96L214 -8L59 392Q48 422 36 430T-11 439V468H199V439H165Q143 439 143 422Q143 415 146 406L254 103H255L367 405Q370 414 370 421Q370 439 347 439H306V468H476Z" />
<glyph unicode="z" glyph-name="z" horiz-adv-x="466" d="M38 30L326 437H227Q177 437 152 428T115 396T96 327H69L73 468H420V438L132 32H260Q313 32 341 42T385 76T409 148H435L425 0H38V30Z" />
<glyph unicode="{" glyph-name="braceleft" horiz-adv-x="283" d="M175 -125T150 -104T118 -52T112 34V162Q112 257 40 257V280Q112 279 112 371V501Q112 553 118 585T149 638T229 660H253V631Q217 630 201 617T182 585T178 529V400Q178 362 173 339T150 298T96
271V265Q132 256 149 240T172 200T178 139V7Q178 -30 181 -49T201 -82T253 -96V-125H230Q175 -125 150 -104Z" />
<glyph unicode="|" glyph-name="bar" horiz-adv-x="260" d="M100 729H159V-198H100V729Z" />
<glyph unicode="}" glyph-name="braceright" horiz-adv-x="283" d="M30 -96Q66 -95 82 -82T101 -50T105 7V139Q105 176 110 199T133 239T187 265V271Q151 280 133 297T110 338T105 400V528Q105 566 102 585T82 617T30 631V660H54Q108 660 133 639T165 585T171
501V371Q171 279 243 280V257Q171 257 171 162V34Q171 -20 165 -51T134 -104T53 -125H30V-96Z" />
<glyph unicode="~" glyph-name="asciitilde" horiz-adv-x="535" d="M55 215Q96 294 170 294Q194 294 220 286T279 263L297 255Q327 242 342 237T372 231Q394 231 412 249T450 300L483 254Q460 218 434 197T368 175Q344 175 322 182T262 206Q227 223 208 230T167
238Q140 238 122 219T88 169L55 215Z" />
<glyph unicode="&#xa1;" glyph-name="exclamdown" horiz-adv-x="285" d="M119 360T103 377T86 419Q86 444 102 460T144 477Q169 477 184 461T201 419Q201 394 185 377T144 360Q119 360 103 377ZM114 -201T102 -184T89 -139Q89 -123 94 -68L125 294H162L193 -68L195
-88Q196 -97 197 -109T198 -135Q198 -201 143 -201Q114 -201 102 -184Z" />
<glyph unicode="&#xa2;" glyph-name="cent" horiz-adv-x="500" d="M443 160T405 125T287 84V0H245V85Q150 92 99 153T47 318Q47 422 94 488T245 565V660H287V566Q358 564 402 536T447 461Q447 433 432 418T387 403Q362 403 346 417T329 458Q329 473 336 485T343
504Q343 516 328 523T287 532V123Q346 123 380 149T426 209L453 196Q443 160 405 125ZM144 155T245 128V527Q197 514 171 464T144 327Q144 155 245 128Z" />
<glyph unicode="&#xa3;" glyph-name="sterling" horiz-adv-x="504" d="M469 144L430 0H62V57Q119 96 143 127T167 203Q167 243 146 309L145 312H37V351H133L107 433Q91 484 91 528Q91 597 133 634T258 672Q337 672 384 639T432 549Q432 518 417 501T378 483Q355
483 341 498T327 533Q327 551 341 571Q342 573 346 580T351 597Q351 616 328 630T260 644Q209 644 187 624T164 563Q164 523 189 443L218 351H379V312H229Q240 265 240 231Q240 185 223 151T172 89V86H365Q398 86 412 93T434 119L444 144H469Z" />
<glyph unicode="&#xa4;" glyph-name="currency" horiz-adv-x="522" d="M28 138L79 191Q30 250 30 329Q30 414 79 469L28 522L69 562L119 511Q148 535 185 547T262 560Q300 560 336 548T402 511L452 562L494 521L443 470Q466 442 478 406T490 331Q490 248 443 191L494
138L452 98L402 151Q374 126 338 113T262 100Q176 100 119 151L69 98L28 138ZM308 156T345 179T404 243T426 331Q426 377 405 417T346 480T263 504Q216 504 178 481T118 418T96 329Q96 282 118 242T178 179T262 156Q308 156 345 179Z" />
<glyph unicode="&#xa5;" glyph-name="yen" horiz-adv-x="504" d="M512 651V622Q484 622 469 611T436 564L318 330H436V288H303V219H436V177H303V89Q303 61 308 50T330 34T391 29V0H128V29Q170 29 187 33T210 49T215 89V177H78V219H215V288H78V330H194L62 573Q45
604 32 613T-8 622V651H207V622H162Q140 622 140 604Q140 597 146 583L276 333H279L401 585Q405 595 405 601Q405 611 398 616T375 622H337V651H512Z" />
<glyph unicode="&#xa6;" glyph-name="brokenbar" horiz-adv-x="260" d="M101 613H160V381H101V613ZM101 149H160V-83H101V149Z" />
<glyph unicode="&#xa7;" glyph-name="section" horiz-adv-x="520" d="M470 167T450 129T397 62Q399 44 399 33Q399 -35 358 -72T243 -109Q179 -109 140 -82T100 -5Q100 22 112 36T147 50Q167 50 180 38T193 4Q193 -10 189 -16T175 -29T165 -43Q165 -60 192 -70T250
-80Q295 -80 321 -61T348 -4Q348 31 321 56T220 126L175 152Q115 188 84 231T53 341Q53 445 133 504Q130 518 130 532Q130 590 169 628T283 667Q347 667 383 640T420 563Q420 535 408 521T373 507Q353 507 340 518T327 551Q327 565 331 572T345 586T355 600Q355
616 332 627T277 638Q232 638 207 618T181 565Q181 531 209 506T302 443L333 426Q404 384 437 340T470 225Q470 167 450 129ZM324 166T349 144T386 95Q405 111 416 135T428 190Q428 237 399 269T307 338L258 367Q170 419 144 472Q123 456 110 431T96 375Q96 342
113 316T159 269T239 217L281 192Q324 166 349 144Z" />
<glyph unicode="&#xa8;" glyph-name="dieresis" horiz-adv-x="383" d="M85 574T71 588T56 622Q56 642 70 656T105 671Q125 671 139 657T154 622Q154 602 140 588T105 574Q85 574 71 588ZM258 574T244 588T229 622Q229 642 243 656T278 671Q298 671 312 657T327
622Q327 602 313 588T278 574Q258 574 244 588Z" />
<glyph unicode="&#xa9;" glyph-name="copyright" horiz-adv-x="749" d="M282 -15T203 31T77 157T30 329Q30 422 76 501T202 626T375 672Q468 672 547 626T672 501T719 329Q719 236 673 157T547 32T375 -15Q282 -15 203 31ZM453 29T518 68T621 176T660 329Q660
412 622 480T519 588T375 628Q297 628 232 589T128 481T90 329Q90 245 128 177T232 69T375 29Q453 29 518 68ZM322 133T280 158T214 228T191 330Q191 387 216 431T286 499T383 523Q407 523 423 519T460 508Q480 502 484 502Q493 502 496 510L499 516H514L520 402H498Q491
441 466 466T390 492Q321 492 294 446T266 331Q266 262 295 214T393 165Q443 165 473 184T516 230L534 221Q518 185 481 159T379 133Q322 133 280 158Z" />
<glyph unicode="&#xaa;" glyph-name="ordfeminine" horiz-adv-x="320" d="M312 375Q295 367 282 363T246 358Q228 358 218 365T204 394Q182 376 160 367T110 358Q74 358 52 374T29 424Q29 470 73 501T203 547V580Q203 613 192 628T152 644Q130 644 114 635T98
618Q98 615 107 608T116 587Q116 573 107 564T83 555Q67 555 58 564T49 591Q49 622 79 644T169 666Q219 666 242 647T266 583V435Q266 410 271 401T289 392Q295 392 307 396L312 375ZM96 395T142 395Q172 395 203 417V522Q148 509 122 489T96 437Q96 395 142 395Z"
/>
<glyph unicode="&#xab;" glyph-name="guillemotleft" horiz-adv-x="479" d="M42 241L235 453H257L141 241L257 29H235L42 241ZM225 241L418 453H440L324 241L440 29H418L225 241Z" />
<glyph unicode="&#xac;" glyph-name="logicalnot" horiz-adv-x="535" d="M472 333L465 326L205 224L179 257L472 333ZM466 326L464 325L465 326H466ZM290 202L464 325L323 176L290 202Z" />
<glyph unicode="&#xae;" glyph-name="registered" horiz-adv-x="466" d="M178 267T132 294T58 368T30 470Q30 525 57 571T131 644T233 672Q288 672 334 645T408 571T436 470Q436 415 409 369T335 295T233 267Q178 267 132 294ZM277 300T314 322T372 383T394 470Q394
518 373 556T314 617T233 640Q189 640 152 618T93 557T71 470Q71 422 93 384T152 323T233 300Q277 300 314 322ZM141 379Q157 379 161 382T166 397V543Q166 555 162 558T141 561V575H245Q279 575 297 562T316 524Q316 502 303 489T269 471V470Q287 463 293 455T305
423L308 407Q312 392 317 386T334 379V366H280Q270 381 266 399L259 431Q255 450 249 456T224 462H209V397Q209 386 213 383T235 379V366H141V379ZM224 477Q251 477 260 486T270 517Q270 540 260 549T228 559Q216 559 213 557T209 548V477H224Z" />
<glyph unicode="&#xaf;" glyph-name="overscore" horiz-adv-x="395" d="M74 624H322V572H74V624Z" />
<glyph unicode="&#xb0;" glyph-name="degree" horiz-adv-x="340" d="M134 404T104 422T56 470T38 537Q38 593 76 631T170 669Q226 669 264 631T303 537Q303 501 286 471T238 422T170 404Q134 404 104 422ZM210 444T236 471T263 537Q263 575 237 602T170 629Q131
629 105 602T78 537Q78 499 104 472T170 444Q210 444 236 471Z" />
<glyph unicode="&#xb1;" glyph-name="plusminus" horiz-adv-x="532" d="M236 256H33V315H236V469H295V315H498V256H295V103H236V256ZM33 59H498V0H33V59Z" />
<glyph unicode="&#xb2;" glyph-name="uni00B2" horiz-adv-x="352" d="M30 268Q30 310 54 342T139 424Q173 452 191 469T222 510T236 567Q236 604 217 623T163 643Q141 643 126 636T111 616Q111 611 117 601T124 581Q124 564 114 554T85 544Q68 544 58 555T47 585Q47
622 84 644T179 667Q238 667 274 641T310 564Q310 522 284 493T195 426Q138 391 112 367T79 321H236Q268 321 282 331T300 362H319L296 264H30V268Z" />
<glyph unicode="&#xb3;" glyph-name="uni00B3" horiz-adv-x="355" d="M98 256T62 278T26 336Q26 356 37 368T68 380Q84 380 94 371T104 346Q104 336 99 327T93 313Q93 300 109 291T150 281Q191 281 213 306T236 379Q236 469 147 469Q135 469 114 466V492Q125 491
143 491Q180 491 199 513T218 571Q218 607 201 625T154 644Q131 644 117 636T102 613Q102 607 107 599T113 580Q113 564 104 556T77 547Q58 547 47 557T36 588Q36 623 72 645T164 668Q223 668 257 642T291 573Q291 537 266 512T196 482V481Q247 479 277 449T308
372Q308 319 267 288T155 256Q98 256 62 278Z" />
<glyph unicode="&#xb4;" glyph-name="acute" horiz-adv-x="385" d="M214 722Q223 739 232 747T256 755Q270 755 281 744T292 718Q292 708 288 700T268 674L165 562H137L214 722Z" />
<glyph unicode="&#xb5;" glyph-name="uni00B5" horiz-adv-x="549" d="M472 58T476 48T494 33T540 29V0H389V70H386Q321 -12 225 -12Q172 -12 141 10Q143 -23 151 -69Q159 -131 159 -154Q159 -182 147 -197T114 -212Q97 -212 87 -196T76 -154Q76 -131 82 -67Q92
23 92 98V383Q92 409 86 418T62 427H28V456L149 474H177V147Q177 97 199 67T269 37Q305 37 333 57T386 111L387 383Q387 409 381 418T357 427H323V456L444 474H472V83Q472 58 476 48Z" />
<glyph unicode="&#xb6;" glyph-name="paragraph" horiz-adv-x="508" d="M196 249Q124 263 81 317T38 452Q38 548 94 604T245 660H252V-130H196V249ZM316 660H459V631H416Q387 631 380 620T372 584V-130H316V660Z" />
<glyph unicode="&#xb7;" glyph-name="middot" horiz-adv-x="309" d="M129 218T112 235T94 278Q94 303 111 321T154 339Q180 339 197 322T215 278Q215 253 197 236T154 218Q129 218 112 235Z" />
<glyph unicode="&#xb8;" glyph-name="cedilla" horiz-adv-x="416" d="M146 -187T109 -171L121 -142Q147 -155 174 -155Q196 -155 211 -146T227 -119Q227 -102 215 -93T187 -84Q176 -84 160 -91L148 -85L187 1H221L196 -55Q210 -51 224 -51Q250 -51 271 -67T293
-114Q293 -152 262 -169T191 -187Q146 -187 109 -171Z" />
<glyph unicode="&#xb9;" glyph-name="uni00B9" horiz-adv-x="303" d="M71 285H104Q123 285 128 290T134 312V606Q71 579 46 571V596Q74 607 103 625T152 660H202V312Q202 295 207 290T233 285H267V264H71V285Z" />
<glyph unicode="&#xba;" glyph-name="ordmasculine" horiz-adv-x="351" d="M104 357T67 397T30 511Q30 584 68 625T175 666Q246 666 283 626T320 511Q320 437 282 397T175 357Q104 357 67 397ZM213 379T230 412T250 511Q248 576 231 610T175 644Q137 644 120 611T101
511Q102 445 119 412T175 379Q213 379 230 412Z" />
<glyph unicode="&#xbb;" glyph-name="guillemotright" horiz-adv-x="479" d="M156 241L40 453H62L255 241L62 29H40L156 241ZM339 241L223 453H245L438 241L245 29H223L339 241Z" />
<glyph unicode="&#xbc;" glyph-name="onequarter" horiz-adv-x="829" d="M591 672H634L263 -12H221L591 672ZM101 285H134Q153 285 158 290T164 312V606Q101 579 76 571V596Q104 607 133 625T182 660H232V312Q232 295 237 290T263 285H297V264H101V285ZM574 21H603Q612
21 615 26T619 42V108H441V146Q534 279 639 401H685V153H745V108H685V42Q685 30 688 26T702 21H729V0H574V21ZM619 153V336H617Q556 265 476 153H619Z" />
<glyph unicode="&#xbd;" glyph-name="onehalf" horiz-adv-x="862" d="M580 672H623L252 -12H210L580 672ZM98 285H131Q150 285 155 290T161 312V606Q98 579 73 571V596Q101 607 130 625T179 660H229V312Q229 295 234 290T260 285H294V264H98V285ZM501 4Q501 45
525 77T610 160Q644 188 662 205T693 246T707 303Q707 340 688 359T634 379Q612 379 597 372T582 352Q582 347 588 337T595 317Q595 300 585 290T556 280Q539 280 529 291T518 321Q518 358 555 380T650 403Q709 403 745 377T781 300Q781 258 755 229T666 162Q609
127 583 103T550 57H707Q739 57 753 67T771 98H790L767 0H501V4Z" />
<glyph unicode="&#xbe;" glyph-name="threequarters" horiz-adv-x="831" d="M612 672H655L284 -12H242L612 672ZM135 256T99 278T63 336Q63 356 74 368T105 380Q121 380 131 371T141 346Q141 336 136 327T130 313Q130 300 146 291T187 281Q228 281 250 306T273
379Q273 469 184 469Q172 469 151 466V492Q162 491 180 491Q217 491 236 513T255 571Q255 607 238 625T191 644Q168 644 154 636T139 613Q139 607 144 599T150 580Q150 564 141 556T114 547Q95 547 84 557T73 588Q73 623 109 645T201 668Q260 668 294 642T328 573Q328
537 303 512T233 482V481Q284 479 314 449T345 372Q345 319 304 288T192 256Q135 256 99 278ZM589 21H618Q627 21 630 26T634 42V108H456V146Q549 279 654 401H700V153H760V108H700V42Q700 30 703 26T717 21H744V0H589V21ZM635 153V336H633Q572 265 492 153H635Z"
/>
<glyph unicode="&#xbf;" glyph-name="questiondown" horiz-adv-x="467" d="M236 367T220 383T203 423Q203 446 219 463T259 480Q283 480 299 464T315 424Q315 400 299 384T259 367Q236 367 220 383ZM158 -204T108 -172T58 -67Q58 -28 71 2T104 55T156 108Q199
148 221 179T243 253V293H279V253Q279 198 263 163T213 86Q182 45 167 13T151 -69Q151 -119 173 -149T236 -179Q266 -179 292 -167T319 -132Q319 -124 316 -119T306 -107Q298 -98 294 -91T290 -69Q290 -46 304 -33T342 -20Q368 -20 382 -38T396 -86Q396 -144 347
-174T230 -204Q158 -204 108 -172Z" />
<glyph unicode="&#xc0;" glyph-name="Agrave" horiz-adv-x="646" d="M575 49T588 39T638 29V0H409V29H447Q476 29 476 54Q476 64 473 74L410 250H188L125 71Q121 57 121 51Q121 29 149 29H185V0H7V29Q33 29 47 34T69 52T87 91L299 660H355L564 84Q575 49 588 39ZM398
284L300 556H297L201 284H398ZM272 866Q257 883 253 891T248 910Q248 925 259 936T284 947Q298 947 307 939T326 914L403 754H375L272 866Z" />
<glyph unicode="&#xc1;" glyph-name="Aacute" horiz-adv-x="646" d="M575 49T588 39T638 29V0H409V29H447Q476 29 476 54Q476 64 473 74L410 250H188L125 71Q121 57 121 51Q121 29 149 29H185V0H7V29Q33 29 47 34T69 52T87 91L299 660H355L564 84Q575 49 588 39ZM398
284L300 556H297L201 284H398ZM325 914Q334 931 343 939T367 947Q381 947 392 936T403 910Q403 900 399 892T379 866L276 754H248L325 914Z" />
<glyph unicode="&#xc2;" glyph-name="Acircumflex" horiz-adv-x="646" d="M575 49T588 39T638 29V0H409V29H447Q476 29 476 54Q476 64 473 74L410 250H188L125 71Q121 57 121 51Q121 29 149 29H185V0H7V29Q33 29 47 34T69 52T87 91L299 660H355L564 84Q575 49
588 39ZM398 284L300 556H297L201 284H398ZM293 900H360L458 746H420L324 839L231 746H193L293 900Z" />
<glyph unicode="&#xc3;" glyph-name="Atilde" horiz-adv-x="646" d="M575 49T588 39T638 29V0H409V29H447Q476 29 476 54Q476 64 473 74L410 250H188L125 71Q121 57 121 51Q121 29 149 29H185V0H7V29Q33 29 47 34T69 52T87 91L299 660H355L564 84Q575 49 588 39ZM398
284L300 556H297L201 284H398ZM365 753T351 758T312 774Q274 793 252 793Q233 793 222 782T208 755H185Q187 797 210 824T271 851Q288 851 304 846T342 831Q380 814 400 814Q420 814 431 825T443 850H467Q465 811 441 782T381 753Q365 753 351 758Z" />
<glyph unicode="&#xc4;" glyph-name="Adieresis" horiz-adv-x="646" d="M575 49T588 39T638 29V0H409V29H447Q476 29 476 54Q476 64 473 74L410 250H188L125 71Q121 57 121 51Q121 29 149 29H185V0H7V29Q33 29 47 34T69 52T87 91L299 660H355L564 84Q575 49 588
39ZM398 284L300 556H297L201 284H398ZM219 766T205 780T190 814Q190 834 204 848T239 863Q259 863 273 849T288 814Q288 794 274 780T239 766Q219 766 205 780ZM392 766T378 780T363 814Q363 834 377 848T412 863Q432 863 446 849T461 814Q461 794 447 780T412
766Q392 766 378 780Z" />
<glyph unicode="&#xc5;" glyph-name="Aring" horiz-adv-x="646" d="M575 49T588 39T638 29V0H409V29H447Q476 29 476 54Q476 64 473 74L410 250H188L125 71Q121 57 121 51Q121 29 149 29H185V0H7V29Q33 29 47 34T69 52T87 91L299 660H355L564 84Q575 49 588 39ZM398
284L300 556H297L201 284H398ZM289 720T263 746T237 809Q237 846 263 871T326 897Q363 897 388 872T414 809Q414 772 389 746T326 720Q289 720 263 746ZM348 755T364 771T380 809Q380 832 364 848T326 864Q303 864 287 848T271 809Q271 787 287 771T326 755Q348
755 364 771Z" />
<glyph unicode="&#xc6;" glyph-name="AE" horiz-adv-x="880" d="M841 172L830 0H345V29Q383 29 398 33T417 49T422 90V325H267L134 65Q130 56 130 47Q130 29 150 29H206V0H7V29Q42 29 57 38T88 77L360 594Q366 606 366 615Q366 630 348 631H288V660H807V500H782Q773
552 760 578T719 615T635 626H547Q524 626 517 619T510 590V363H625Q663 363 681 370T705 394T718 446H742V242H718Q712 277 706 293T681 317T625 325H510V117Q510 77 520 60T555 39T633 34Q695 34 729 45T784 85T817 172H841ZM422 363V619H417L286 363H422Z" />
<glyph unicode="&#xc7;" glyph-name="Ccedilla" horiz-adv-x="651" d="M356 -12L337 -55Q351 -51 365 -51Q391 -51 412 -67T434 -114Q434 -152 403 -169T332 -187Q287 -187 250 -171L262 -142Q288 -155 315 -155Q337 -155 352 -146T368 -119Q368 -102 356 -93T328
-84Q317 -84 301 -91L289 -85L323 -10Q193 3 123 90T53 322Q53 486 137 579T374 672Q415 672 444 665T503 645Q526 635 537 635Q555 635 561 649L564 660H591L601 480H574Q533 638 381 638Q298 638 249 590T179 471T159 331Q159 250 182 180T255 66T381 22Q442
22 481 42T542 92T580 161L605 148Q581 82 528 35T366 -12H356Z" />
<glyph unicode="&#xc8;" glyph-name="Egrave" horiz-adv-x="587" d="M50 29Q88 29 103 33T123 48T127 89V571Q127 600 123 611T103 627T50 631V660H515V500H489Q480 553 467 578T426 615T343 626H255Q232 626 226 620T219 590V363H333Q371 363 389 370T413 394T426
446H450V242H426Q420 277 414 293T389 317T333 325H219V111Q219 76 228 61T261 39T341 33Q404 33 438 44T491 84T523 172H549L538 0H50V29ZM247 866Q232 883 228 891T223 910Q223 925 234 936T259 947Q273 947 282 939T301 914L378 754H350L247 866Z" />
<glyph unicode="&#xc9;" glyph-name="Eacute" horiz-adv-x="587" d="M50 29Q88 29 103 33T123 48T127 89V571Q127 600 123 611T103 627T50 631V660H515V500H489Q480 553 467 578T426 615T343 626H255Q232 626 226 620T219 590V363H333Q371 363 389 370T413 394T426
446H450V242H426Q420 277 414 293T389 317T333 325H219V111Q219 76 228 61T261 39T341 33Q404 33 438 44T491 84T523 172H549L538 0H50V29ZM300 914Q309 931 318 939T342 947Q356 947 367 936T378 910Q378 900 374 892T354 866L251 754H223L300 914Z" />
<glyph unicode="&#xca;" glyph-name="Ecircumflex" horiz-adv-x="587" d="M50 29Q88 29 103 33T123 48T127 89V571Q127 600 123 611T103 627T50 631V660H515V500H489Q480 553 467 578T426 615T343 626H255Q232 626 226 620T219 590V363H333Q371 363 389 370T413
394T426 446H450V242H426Q420 277 414 293T389 317T333 325H219V111Q219 76 228 61T261 39T341 33Q404 33 438 44T491 84T523 172H549L538 0H50V29ZM268 900H335L433 746H395L299 839L206 746H168L268 900Z" />
<glyph unicode="&#xcb;" glyph-name="Edieresis" horiz-adv-x="587" d="M50 29Q88 29 103 33T123 48T127 89V571Q127 600 123 611T103 627T50 631V660H515V500H489Q480 553 467 578T426 615T343 626H255Q232 626 226 620T219 590V363H333Q371 363 389 370T413
394T426 446H450V242H426Q420 277 414 293T389 317T333 325H219V111Q219 76 228 61T261 39T341 33Q404 33 438 44T491 84T523 172H549L538 0H50V29ZM194 766T180 780T165 814Q165 834 179 848T214 863Q234 863 248 849T263 814Q263 794 249 780T214 766Q194 766
180 780ZM367 766T353 780T338 814Q338 834 352 848T387 863Q407 863 421 849T436 814Q436 794 422 780T387 766Q367 766 353 780Z" />
<glyph unicode="&#xcc;" glyph-name="Igrave" horiz-adv-x="345" d="M50 29Q88 29 103 33T123 49T127 89V570Q127 599 123 610T103 626T50 631V660H296V631Q258 631 243 627T224 611T219 570V89Q219 61 223 50T243 34T296 29V0H50V29ZM119 866Q104 883 100 891T95
910Q95 925 106 936T131 947Q145 947 154 939T173 914L250 754H222L119 866Z" />
<glyph unicode="&#xcd;" glyph-name="Iacute" horiz-adv-x="345" d="M50 29Q88 29 103 33T123 49T127 89V570Q127 599 123 610T103 626T50 631V660H296V631Q258 631 243 627T224 611T219 570V89Q219 61 223 50T243 34T296 29V0H50V29ZM172 914Q181 931 190 939T214
947Q228 947 239 936T250 910Q250 900 246 892T226 866L123 754H95L172 914Z" />
<glyph unicode="&#xce;" glyph-name="Icircumflex" horiz-adv-x="345" d="M50 29Q88 29 103 33T123 49T127 89V570Q127 599 123 610T103 626T50 631V660H296V631Q258 631 243 627T224 611T219 570V89Q219 61 223 50T243 34T296 29V0H50V29ZM140 900H207L305 746H267L171
839L78 746H40L140 900Z" />
<glyph unicode="&#xcf;" glyph-name="Idieresis" horiz-adv-x="345" d="M50 29Q88 29 103 33T123 49T127 89V570Q127 599 123 610T103 626T50 631V660H296V631Q258 631 243 627T224 611T219 570V89Q219 61 223 50T243 34T296 29V0H50V29ZM66 766T52 780T37 814Q37
834 51 848T86 863Q106 863 120 849T135 814Q135 794 121 780T86 766Q66 766 52 780ZM239 766T225 780T210 814Q210 834 224 848T259 863Q279 863 293 849T308 814Q308 794 294 780T259 766Q239 766 225 780Z" />
<glyph unicode="&#xd0;" glyph-name="Eth" horiz-adv-x="728" d="M507 658T591 577T675 341Q675 173 584 87T326 0H53V29Q91 29 106 33T126 48T130 89V314H51V352H130V571Q130 600 126 611T106 627T53 631V660H350Q507 658 591 577ZM568 33T568 337Q568 473 510
549T326 626Q278 626 257 623T229 610T222 577V352H416V314H222V110Q222 78 231 62T260 39T317 33Q568 33 568 337Z" />
<glyph unicode="&#xd1;" glyph-name="Ntilde" horiz-adv-x="702" d="M158 562H156V81Q156 53 167 41T206 29H245V0H41V29H70Q94 29 105 41T117 81V574Q117 600 112 611T92 626T40 631V660H208L545 148H548V583Q548 631 497 631H458V660H662V631H632Q586 631 586
583V-6H537L158 562ZM399 753T385 758T346 774Q308 793 286 793Q267 793 256 782T242 755H219Q221 797 244 824T305 851Q322 851 338 846T376 831Q414 814 434 814Q454 814 465 825T477 850H501Q499 811 475 782T415 753Q399 753 385 758Z" />
<glyph unicode="&#xd2;" glyph-name="Ograve" horiz-adv-x="710" d="M204 -12T129 81T53 329Q53 482 128 577T355 672Q508 672 583 577T658 329Q658 175 583 82T355 -12Q204 -12 129 81ZM464 22T508 109T552 329Q552 469 509 553T356 638Q246 638 203 554T160
329Q160 197 204 110T356 22Q464 22 508 109ZM302 866Q287 883 283 891T278 910Q278 925 289 936T314 947Q328 947 337 939T356 914L433 754H405L302 866Z" />
<glyph unicode="&#xd3;" glyph-name="Oacute" horiz-adv-x="710" d="M204 -12T129 81T53 329Q53 482 128 577T355 672Q508 672 583 577T658 329Q658 175 583 82T355 -12Q204 -12 129 81ZM464 22T508 109T552 329Q552 469 509 553T356 638Q246 638 203 554T160
329Q160 197 204 110T356 22Q464 22 508 109ZM355 914Q364 931 373 939T397 947Q411 947 422 936T433 910Q433 900 429 892T409 866L306 754H278L355 914Z" />
<glyph unicode="&#xd4;" glyph-name="Ocircumflex" horiz-adv-x="710" d="M204 -12T129 81T53 329Q53 482 128 577T355 672Q508 672 583 577T658 329Q658 175 583 82T355 -12Q204 -12 129 81ZM464 22T508 109T552 329Q552 469 509 553T356 638Q246 638 203 554T160
329Q160 197 204 110T356 22Q464 22 508 109ZM323 900H390L488 746H450L354 839L261 746H223L323 900Z" />
<glyph unicode="&#xd5;" glyph-name="Otilde" horiz-adv-x="710" d="M204 -12T129 81T53 329Q53 482 128 577T355 672Q508 672 583 577T658 329Q658 175 583 82T355 -12Q204 -12 129 81ZM464 22T508 109T552 329Q552 469 509 553T356 638Q246 638 203 554T160
329Q160 197 204 110T356 22Q464 22 508 109ZM395 753T381 758T342 774Q304 793 282 793Q263 793 252 782T238 755H215Q217 797 240 824T301 851Q318 851 334 846T372 831Q410 814 430 814Q450 814 461 825T473 850H497Q495 811 471 782T411 753Q395 753 381 758Z"
/>
<glyph unicode="&#xd6;" glyph-name="Odieresis" horiz-adv-x="710" d="M204 -12T129 81T53 329Q53 482 128 577T355 672Q508 672 583 577T658 329Q658 175 583 82T355 -12Q204 -12 129 81ZM464 22T508 109T552 329Q552 469 509 553T356 638Q246 638 203 554T160
329Q160 197 204 110T356 22Q464 22 508 109ZM249 766T235 780T220 814Q220 834 234 848T269 863Q289 863 303 849T318 814Q318 794 304 780T269 766Q249 766 235 780ZM422 766T408 780T393 814Q393 834 407 848T442 863Q462 863 476 849T491 814Q491 794 477 780T442
766Q422 766 408 780Z" />
<glyph unicode="&#xd7;" glyph-name="multiply" horiz-adv-x="516" d="M49 69L216 237L49 404L92 446L258 278L426 446L468 404L300 237L468 69L426 27L258 195L92 27L49 69Z" />
<glyph unicode="&#xd8;" glyph-name="Oslash" horiz-adv-x="713" d="M618 544T639 477T661 329Q661 175 586 82T358 -12Q229 -12 152 60L100 -6H55L128 86Q92 130 74 192T56 329Q56 482 131 577T358 672Q474 672 549 613L591 666H635L574 590Q618 544 639 477ZM163
228T186 158L507 561Q458 638 359 638Q249 638 206 554T163 329Q163 228 186 158ZM467 22T511 109T555 329Q555 452 525 527L201 121Q250 22 359 22Q467 22 511 109Z" />
<glyph unicode="&#xd9;" glyph-name="Ugrave" horiz-adv-x="734" d="M240 -12T180 47T120 232V571Q120 599 116 610T96 626T43 631V660H289V631Q252 631 237 627T217 611T212 571V226Q212 131 251 77T369 22Q446 22 485 76T525 226V571Q525 599 521 610T501 626T448
631V660H694V631Q656 631 641 627T621 611T617 571V232Q617 107 556 48T367 -12Q240 -12 180 47ZM315 866Q300 883 296 891T291 910Q291 925 302 936T327 947Q341 947 350 939T369 914L446 754H418L315 866Z" />
<glyph unicode="&#xda;" glyph-name="Uacute" horiz-adv-x="734" d="M240 -12T180 47T120 232V571Q120 599 116 610T96 626T43 631V660H289V631Q252 631 237 627T217 611T212 571V226Q212 131 251 77T369 22Q446 22 485 76T525 226V571Q525 599 521 610T501 626T448
631V660H694V631Q656 631 641 627T621 611T617 571V232Q617 107 556 48T367 -12Q240 -12 180 47ZM368 914Q377 931 386 939T410 947Q424 947 435 936T446 910Q446 900 442 892T422 866L319 754H291L368 914Z" />
<glyph unicode="&#xdb;" glyph-name="Ucircumflex" horiz-adv-x="734" d="M240 -12T180 47T120 232V571Q120 599 116 610T96 626T43 631V660H289V631Q252 631 237 627T217 611T212 571V226Q212 131 251 77T369 22Q446 22 485 76T525 226V571Q525 599 521 610T501
626T448 631V660H694V631Q656 631 641 627T621 611T617 571V232Q617 107 556 48T367 -12Q240 -12 180 47ZM336 900H403L501 746H463L367 839L274 746H236L336 900Z" />
<glyph unicode="&#xdc;" glyph-name="Udieresis" horiz-adv-x="734" d="M240 -12T180 47T120 232V571Q120 599 116 610T96 626T43 631V660H289V631Q252 631 237 627T217 611T212 571V226Q212 131 251 77T369 22Q446 22 485 76T525 226V571Q525 599 521 610T501
626T448 631V660H694V631Q656 631 641 627T621 611T617 571V232Q617 107 556 48T367 -12Q240 -12 180 47ZM262 766T248 780T233 814Q233 834 247 848T282 863Q302 863 316 849T331 814Q331 794 317 780T282 766Q262 766 248 780ZM435 766T421 780T406 814Q406 834
420 848T455 863Q475 863 489 849T504 814Q504 794 490 780T455 766Q435 766 421 780Z" />
<glyph unicode="&#xdd;" glyph-name="Yacute" horiz-adv-x="619" d="M604 660V631Q575 631 560 627T535 611T511 573L361 270V89Q361 61 366 50T389 34T453 29V0H180V29Q224 29 242 33T266 49T271 89V258L104 582Q89 612 73 621T21 631V660H258V631H209Q192 631
192 617Q192 611 197 601L338 315H340L474 598Q479 610 479 616Q479 631 461 631H410V660H604ZM307 914Q316 931 325 939T349 947Q363 947 374 936T385 910Q385 900 381 892T361 866L258 754H230L307 914Z" />
<glyph unicode="&#xde;" glyph-name="Thorn" horiz-adv-x="571" d="M50 29Q86 29 102 33T122 49T127 86V570Q127 599 123 610T103 626T50 631V660H296V631Q258 631 243 627T224 611T219 570V540H298Q414 540 475 497T537 355Q537 251 470 208T287 164H219V86Q219
60 224 49T247 33T304 29V0H50V29ZM280 200Q359 200 398 237T437 352Q437 429 399 466T280 504Q243 504 231 496T219 468V200H280Z" />
<glyph unicode="&#xdf;" glyph-name="germandbls" horiz-adv-x="580" d="M495 246T522 211T550 125Q550 63 508 26T397 -11Q353 -11 329 5T304 47Q304 66 315 78T347 91Q364 91 373 83T383 59Q383 52 381 45T378 34Q378 28 385 25T407 21Q435 21 456 39T478 91Q478
131 457 160T387 219Q333 255 309 288T285 356Q285 457 391 483Q401 497 407 517T413 558Q413 607 380 639T298 672Q232 672 207 611T181 438V83Q181 58 185 48T203 33T250 29V0H28V29Q61 29 75 32T93 45T97 77V435H28V468H97Q100 586 150 645T305 705Q377 705
418 680T475 621T491 555Q491 534 485 514T467 479Q418 471 388 448T358 389Q358 359 375 339T432 291L449 279Q495 246 522 211Z" />
<glyph unicode="&#xe0;" glyph-name="agrave" horiz-adv-x="490" d="M479 16Q460 4 440 -3T388 -10Q358 -10 343 2T324 54Q287 22 252 6T174 -11Q119 -11 85 14T50 89Q50 159 121 211T324 284V342Q324 393 304 418T233 443Q198 443 170 430T142 404Q142 397 151
390T166 375T172 352Q172 331 160 319T126 306Q103 306 90 320T76 359Q76 390 96 417T158 461T260 478Q336 478 372 447T408 339V102Q408 63 416 49T444 34Q456 34 472 41L479 16ZM140 78T160 61T218 43Q246 43 271 55T324 87V252Q231 232 186 199T140 113Q140
78 160 61ZM197 674Q182 691 178 699T173 718Q173 733 184 744T209 755Q223 755 232 747T251 722L328 562H300L197 674Z" />
<glyph unicode="&#xe1;" glyph-name="aacute" horiz-adv-x="490" d="M479 16Q460 4 440 -3T388 -10Q358 -10 343 2T324 54Q287 22 252 6T174 -11Q119 -11 85 14T50 89Q50 159 121 211T324 284V342Q324 393 304 418T233 443Q198 443 170 430T142 404Q142 397 151
390T166 375T172 352Q172 331 160 319T126 306Q103 306 90 320T76 359Q76 390 96 417T158 461T260 478Q336 478 372 447T408 339V102Q408 63 416 49T444 34Q456 34 472 41L479 16ZM140 78T160 61T218 43Q246 43 271 55T324 87V252Q231 232 186 199T140 113Q140
78 160 61ZM250 722Q259 739 268 747T292 755Q306 755 317 744T328 718Q328 708 324 700T304 674L201 562H173L250 722Z" />
<glyph unicode="&#xe2;" glyph-name="acircumflex" horiz-adv-x="490" d="M479 16Q460 4 440 -3T388 -10Q358 -10 343 2T324 54Q287 22 252 6T174 -11Q119 -11 85 14T50 89Q50 159 121 211T324 284V342Q324 393 304 418T233 443Q198 443 170 430T142 404Q142 397
151 390T166 375T172 352Q172 331 160 319T126 306Q103 306 90 320T76 359Q76 390 96 417T158 461T260 478Q336 478 372 447T408 339V102Q408 63 416 49T444 34Q456 34 472 41L479 16ZM140 78T160 61T218 43Q246 43 271 55T324 87V252Q231 232 186 199T140 113Q140
78 160 61ZM218 708H285L383 554H345L249 647L156 554H118L218 708Z" />
<glyph unicode="&#xe3;" glyph-name="atilde" horiz-adv-x="490" d="M479 16Q460 4 440 -3T388 -10Q358 -10 343 2T324 54Q287 22 252 6T174 -11Q119 -11 85 14T50 89Q50 159 121 211T324 284V342Q324 393 304 418T233 443Q198 443 170 430T142 404Q142 397 151
390T166 375T172 352Q172 331 160 319T126 306Q103 306 90 320T76 359Q76 390 96 417T158 461T260 478Q336 478 372 447T408 339V102Q408 63 416 49T444 34Q456 34 472 41L479 16ZM140 78T160 61T218 43Q246 43 271 55T324 87V252Q231 232 186 199T140 113Q140
78 160 61ZM290 561T276 566T237 582Q199 601 177 601Q158 601 147 590T133 563H110Q112 605 135 632T196 659Q213 659 229 654T267 639Q305 622 325 622Q345 622 356 633T368 658H392Q390 619 366 590T306 561Q290 561 276 566Z" />
<glyph unicode="&#xe4;" glyph-name="adieresis" horiz-adv-x="490" d="M479 16Q460 4 440 -3T388 -10Q358 -10 343 2T324 54Q287 22 252 6T174 -11Q119 -11 85 14T50 89Q50 159 121 211T324 284V342Q324 393 304 418T233 443Q198 443 170 430T142 404Q142 397
151 390T166 375T172 352Q172 331 160 319T126 306Q103 306 90 320T76 359Q76 390 96 417T158 461T260 478Q336 478 372 447T408 339V102Q408 63 416 49T444 34Q456 34 472 41L479 16ZM140 78T160 61T218 43Q246 43 271 55T324 87V252Q231 232 186 199T140 113Q140
78 160 61ZM144 574T130 588T115 622Q115 642 129 656T164 671Q184 671 198 657T213 622Q213 602 199 588T164 574Q144 574 130 588ZM317 574T303 588T288 622Q288 642 302 656T337 671Q357 671 371 657T386 622Q386 602 372 588T337 574Q317 574 303 588Z" />
<glyph unicode="&#xe5;" glyph-name="aring" horiz-adv-x="490" d="M479 16Q460 4 440 -3T388 -10Q358 -10 343 2T324 54Q287 22 252 6T174 -11Q119 -11 85 14T50 89Q50 159 121 211T324 284V342Q324 393 304 418T233 443Q198 443 170 430T142 404Q142 397 151
390T166 375T172 352Q172 331 160 319T126 306Q103 306 90 320T76 359Q76 390 96 417T158 461T260 478Q336 478 372 447T408 339V102Q408 63 416 49T444 34Q456 34 472 41L479 16ZM140 78T160 61T218 43Q246 43 271 55T324 87V252Q231 232 186 199T140 113Q140
78 160 61ZM214 528T188 554T162 617Q162 654 188 679T251 705Q288 705 313 680T339 617Q339 580 314 554T251 528Q214 528 188 554ZM273 563T289 579T305 617Q305 640 289 656T251 672Q228 672 212 656T196 617Q196 595 212 579T251 563Q273 563 289 579Z" />
<glyph unicode="&#xe6;" glyph-name="ae" horiz-adv-x="761" d="M715 236H413Q415 140 446 85T549 29Q643 29 685 136L711 124Q690 64 647 27T521 -11Q406 -11 355 70Q308 30 267 10T175 -11Q119 -11 85 14T50 88Q50 153 118 201T318 271V342Q318 392 298 417T229
443Q193 443 168 430T142 404Q142 399 151 392T166 377T172 352Q172 331 160 319T126 306Q102 306 89 320T76 360Q76 391 95 417T156 461T256 478Q303 478 334 466T383 426Q436 479 528 479Q634 479 674 414T715 243V236ZM622 268Q622 362 600 405T525 448Q419
448 413 268H622ZM254 43T282 57T341 95Q317 149 317 228V239Q226 221 183 190T140 111Q140 78 160 61T218 43Q254 43 282 57Z" />
<glyph unicode="&#xe7;" glyph-name="ccedilla" horiz-adv-x="483" d="M250 -11L230 -55Q244 -51 258 -51Q284 -51 305 -67T327 -114Q327 -152 296 -169T225 -187Q180 -187 143 -171L155 -142Q181 -155 208 -155Q230 -155 245 -146T261 -119Q261 -102 249 -93T221
-84Q210 -84 194 -91L182 -85L217 -7Q136 8 93 70T49 230Q49 342 105 410T274 479Q347 479 394 450T441 370Q441 344 428 329T390 314Q365 314 352 327T339 363Q339 375 342 383T353 400T360 417Q360 430 340 439T287 448Q219 448 181 401T143 241Q143 29 287 29Q383
29 423 118L447 104Q434 63 392 26T266 -11H250Z" />
<glyph unicode="&#xe8;" glyph-name="egrave" d="M460 230H142Q144 137 175 83T287 29Q345 29 379 59T429 136L457 124Q436 63 392 26T261 -11Q154 -11 102 51T49 229Q49 348 103 413T262 479Q460 479 460 239V230ZM367 262Q367 357 344 402T263 448Q204 448 175
402T142 262H367ZM199 674Q184 691 180 699T175 718Q175 733 186 744T211 755Q225 755 234 747T253 722L330 562H302L199 674Z" />
<glyph unicode="&#xe9;" glyph-name="eacute" d="M460 230H142Q144 137 175 83T287 29Q345 29 379 59T429 136L457 124Q436 63 392 26T261 -11Q154 -11 102 51T49 229Q49 348 103 413T262 479Q460 479 460 239V230ZM367 262Q367 357 344 402T263 448Q204 448 175
402T142 262H367ZM252 722Q261 739 270 747T294 755Q308 755 319 744T330 718Q330 708 326 700T306 674L203 562H175L252 722Z" />
<glyph unicode="&#xea;" glyph-name="ecircumflex" d="M460 230H142Q144 137 175 83T287 29Q345 29 379 59T429 136L457 124Q436 63 392 26T261 -11Q154 -11 102 51T49 229Q49 348 103 413T262 479Q460 479 460 239V230ZM367 262Q367 357 344 402T263 448Q204
448 175 402T142 262H367ZM220 708H287L385 554H347L251 647L158 554H120L220 708Z" />
<glyph unicode="&#xeb;" glyph-name="edieresis" d="M460 230H142Q144 137 175 83T287 29Q345 29 379 59T429 136L457 124Q436 63 392 26T261 -11Q154 -11 102 51T49 229Q49 348 103 413T262 479Q460 479 460 239V230ZM367 262Q367 357 344 402T263 448Q204 448
175 402T142 262H367ZM146 574T132 588T117 622Q117 642 131 656T166 671Q186 671 200 657T215 622Q215 602 201 588T166 574Q146 574 132 588ZM319 574T305 588T290 622Q290 642 304 656T339 671Q359 671 373 657T388 622Q388 602 374 588T339 574Q319 574 305
588Z" />
<glyph unicode="&#xec;" glyph-name="igrave" horiz-adv-x="265" d="M28 29Q61 29 75 33T92 47T96 83V381Q96 407 91 415T67 424H33V454L156 474H182V83Q182 57 186 47T203 33T250 29V0H28V29ZM79 674Q64 691 60 699T55 718Q55 733 66 744T91 755Q105 755 114
747T133 722L210 562H182L79 674Z" />
<glyph unicode="&#xed;" glyph-name="iacute" horiz-adv-x="265" d="M28 29Q61 29 75 33T92 47T96 83V381Q96 407 91 415T67 424H33V454L156 474H182V83Q182 57 186 47T203 33T250 29V0H28V29ZM132 722Q141 739 150 747T174 755Q188 755 199 744T210 718Q210 708
206 700T186 674L83 562H55L132 722Z" />
<glyph unicode="&#xee;" glyph-name="icircumflex" horiz-adv-x="265" d="M28 29Q61 29 75 33T92 47T96 83V381Q96 407 91 415T67 424H33V454L156 474H182V83Q182 57 186 47T203 33T250 29V0H28V29ZM100 708H167L265 554H227L131 647L38 554H0L100 708Z" />
<glyph unicode="&#xef;" glyph-name="idieresis" horiz-adv-x="265" d="M28 29Q61 29 75 33T92 47T96 83V381Q96 407 91 415T67 424H33V454L156 474H182V83Q182 57 186 47T203 33T250 29V0H28V29ZM26 574T12 588T-3 622Q-3 642 11 656T46 671Q66 671 80 657T95
622Q95 602 81 588T46 574Q26 574 12 588ZM199 574T185 588T170 622Q170 642 184 656T219 671Q239 671 253 657T268 622Q268 602 254 588T219 574Q199 574 185 588Z" />
<glyph unicode="&#xf0;" glyph-name="eth" horiz-adv-x="537" d="M484 402T484 242Q484 118 429 54T265 -11Q157 -11 103 52T48 233Q48 352 103 415T265 479Q293 479 326 474V476Q293 529 248 574L108 513L89 541L222 599Q184 634 113 685L143 708Q212 671 277
623L388 671L407 643L307 599Q355 559 386 521Q484 402 484 242ZM333 21T361 76T390 241Q390 346 363 397T270 448Q202 448 172 396T142 237Q142 130 172 76T268 21Q333 21 361 76Z" />
<glyph unicode="&#xf1;" glyph-name="ntilde" horiz-adv-x="587" d="M485 58T489 48T507 33T554 29V0H335V29Q367 29 380 32T397 46T401 81V324Q401 372 379 401T308 431Q269 431 242 413T190 360V81Q190 56 194 46T211 32T255 29V0H36V29Q69 29 83 33T100 47T104
83V381Q104 407 98 415T75 424H41V454L159 474H187V400H188Q222 440 261 459T350 479Q485 479 485 335V83Q485 58 489 48ZM330 561T316 566T277 582Q239 601 217 601Q198 601 187 590T173 563H150Q152 605 175 632T236 659Q253 659 269 654T307 639Q345 622 365
622Q385 622 396 633T408 658H432Q430 619 406 590T346 561Q330 561 316 566Z" />
<glyph unicode="&#xf2;" glyph-name="ograve" horiz-adv-x="531" d="M48 -11T48 234Q48 355 102 417T266 480Q483 480 483 235Q483 -11 265 -11Q48 -11 48 234ZM390 21T390 230Q390 448 265 448Q203 448 172 394T141 234Q141 21 266 21Q390 21 390 230ZM212 674Q197
691 193 699T188 718Q188 733 199 744T224 755Q238 755 247 747T266 722L343 562H315L212 674Z" />
<glyph unicode="&#xf3;" glyph-name="oacute" horiz-adv-x="531" d="M48 -11T48 234Q48 355 102 417T266 480Q483 480 483 235Q483 -11 265 -11Q48 -11 48 234ZM390 21T390 230Q390 448 265 448Q203 448 172 394T141 234Q141 21 266 21Q390 21 390 230ZM265 722Q274
739 283 747T307 755Q321 755 332 744T343 718Q343 708 339 700T319 674L216 562H188L265 722Z" />
<glyph unicode="&#xf4;" glyph-name="ocircumflex" horiz-adv-x="531" d="M48 -11T48 234Q48 355 102 417T266 480Q483 480 483 235Q483 -11 265 -11Q48 -11 48 234ZM390 21T390 230Q390 448 265 448Q203 448 172 394T141 234Q141 21 266 21Q390 21 390 230ZM233
708H300L398 554H360L264 647L171 554H133L233 708Z" />
<glyph unicode="&#xf5;" glyph-name="otilde" horiz-adv-x="531" d="M48 -11T48 234Q48 355 102 417T266 480Q483 480 483 235Q483 -11 265 -11Q48 -11 48 234ZM390 21T390 230Q390 448 265 448Q203 448 172 394T141 234Q141 21 266 21Q390 21 390 230ZM305 561T291
566T252 582Q214 601 192 601Q173 601 162 590T148 563H125Q127 605 150 632T211 659Q228 659 244 654T282 639Q320 622 340 622Q360 622 371 633T383 658H407Q405 619 381 590T321 561Q305 561 291 566Z" />
<glyph unicode="&#xf6;" glyph-name="odieresis" horiz-adv-x="531" d="M48 -11T48 234Q48 355 102 417T266 480Q483 480 483 235Q483 -11 265 -11Q48 -11 48 234ZM390 21T390 230Q390 448 265 448Q203 448 172 394T141 234Q141 21 266 21Q390 21 390 230ZM159
574T145 588T130 622Q130 642 144 656T179 671Q199 671 213 657T228 622Q228 602 214 588T179 574Q159 574 145 588ZM332 574T318 588T303 622Q303 642 317 656T352 671Q372 671 386 657T401 622Q401 602 387 588T352 574Q332 574 318 588Z" />
<glyph unicode="&#xf7;" glyph-name="divide" horiz-adv-x="536" d="M244 362T226 380T208 422Q208 447 226 464T268 482Q293 482 310 464T328 422Q328 398 311 380T269 362Q244 362 226 380ZM33 265H502V208H33V265ZM244 -9T226 9T208 51Q208 76 226 93T268 111Q293
111 310 93T328 51Q328 27 311 9T269 -9Q244 -9 226 9Z" />
<glyph unicode="&#xf8;" glyph-name="oslash" horiz-adv-x="538" d="M487 357T487 235Q487 -11 269 -11Q174 -11 121 36L87 -6H48L100 58Q52 120 52 234Q52 355 106 417T270 480Q361 480 412 438L442 474H480L434 417Q487 357 487 235ZM145 173T156 126L368 384Q338
448 269 448Q207 448 176 394T145 234Q145 173 156 126ZM394 21T394 230Q394 302 380 352L167 92Q199 21 270 21Q394 21 394 230Z" />
<glyph unicode="&#xf9;" glyph-name="ugrave" horiz-adv-x="583" d="M475 58T479 48T497 33T543 29V0H392V70H389V72Q324 -12 227 -12Q94 -12 94 131V383Q94 409 88 418T64 427H30V456L151 474H179V147Q179 97 201 67T271 37Q336 37 389 113L390 383Q390 409 384
418T360 427H326V456L447 474H475V83Q475 58 479 48ZM224 674Q209 691 205 699T200 718Q200 733 211 744T236 755Q250 755 259 747T278 722L355 562H327L224 674Z" />
<glyph unicode="&#xfa;" glyph-name="uacute" horiz-adv-x="583" d="M475 58T479 48T497 33T543 29V0H392V70H389V72Q324 -12 227 -12Q94 -12 94 131V383Q94 409 88 418T64 427H30V456L151 474H179V147Q179 97 201 67T271 37Q336 37 389 113L390 383Q390 409 384
418T360 427H326V456L447 474H475V83Q475 58 479 48ZM277 722Q286 739 295 747T319 755Q333 755 344 744T355 718Q355 708 351 700T331 674L228 562H200L277 722Z" />
<glyph unicode="&#xfb;" glyph-name="ucircumflex" horiz-adv-x="583" d="M475 58T479 48T497 33T543 29V0H392V70H389V72Q324 -12 227 -12Q94 -12 94 131V383Q94 409 88 418T64 427H30V456L151 474H179V147Q179 97 201 67T271 37Q336 37 389 113L390 383Q390
409 384 418T360 427H326V456L447 474H475V83Q475 58 479 48ZM245 708H312L410 554H372L276 647L183 554H145L245 708Z" />
<glyph unicode="&#xfc;" glyph-name="udieresis" horiz-adv-x="583" d="M475 58T479 48T497 33T543 29V0H392V70H389V72Q324 -12 227 -12Q94 -12 94 131V383Q94 409 88 418T64 427H30V456L151 474H179V147Q179 97 201 67T271 37Q336 37 389 113L390 383Q390 409
384 418T360 427H326V456L447 474H475V83Q475 58 479 48ZM171 574T157 588T142 622Q142 642 156 656T191 671Q211 671 225 657T240 622Q240 602 226 588T191 574Q171 574 157 588ZM344 574T330 588T315 622Q315 642 329 656T364 671Q384 671 398 657T413 622Q413
602 399 588T364 574Q344 574 330 588Z" />
<glyph unicode="&#xfd;" glyph-name="yacute" horiz-adv-x="483" d="M476 468V439Q450 439 438 435T418 421T402 388L220 -82Q201 -131 189 -155T156 -195T103 -211Q65 -211 42 -191T18 -140Q18 -116 33 -100T69 -84Q87 -84 100 -95T114 -127Q114 -140 107 -151T100
-168Q100 -180 117 -180Q137 -180 150 -163T181 -96L214 -8L59 392Q48 422 36 430T-11 439V468H199V439H165Q143 439 143 422Q143 415 146 406L254 103H255L367 405Q370 414 370 421Q370 439 347 439H306V468H476ZM229 722Q238 739 247 747T271 755Q285 755 296
744T307 718Q307 708 303 700T283 674L180 562H152L229 722Z" />
<glyph unicode="&#xfe;" glyph-name="thorn" horiz-adv-x="552" d="M412 479T458 420T504 245Q504 115 448 52T293 -12Q255 -12 227 -1T174 31V-117Q174 -142 178 -152T198 -167T248 -171V-200H21V-171Q55 -171 68 -168T85 -154T89 -117V603Q89 627 83 635T55
643H25V672L146 692H174V427Q199 448 237 463T322 479Q412 479 458 420ZM411 20T411 232Q411 331 381 384T289 438Q231 438 174 388V71Q221 20 282 20Q411 20 411 232Z" />
<glyph unicode="&#xff;" glyph-name="ydieresis" horiz-adv-x="483" d="M476 468V439Q450 439 438 435T418 421T402 388L220 -82Q201 -131 189 -155T156 -195T103 -211Q65 -211 42 -191T18 -140Q18 -116 33 -100T69 -84Q87 -84 100 -95T114 -127Q114 -140 107
-151T100 -168Q100 -180 117 -180Q137 -180 150 -163T181 -96L214 -8L59 392Q48 422 36 430T-11 439V468H199V439H165Q143 439 143 422Q143 415 146 406L254 103H255L367 405Q370 414 370 421Q370 439 347 439H306V468H476ZM123 574T109 588T94 622Q94 642 108
656T143 671Q163 671 177 657T192 622Q192 602 178 588T143 574Q123 574 109 588ZM296 574T282 588T267 622Q267 642 281 656T316 671Q336 671 350 657T365 622Q365 602 351 588T316 574Q296 574 282 588Z" />
<glyph unicode="&#x2013;" glyph-name="endash" horiz-adv-x="388" d="M0 292H388V237H0V292Z" />
<glyph unicode="&#x2014;" glyph-name="emdash" horiz-adv-x="801" d="M0 292H801V237H0V292Z" />
<glyph unicode="&#x2018;" glyph-name="quoteleft" horiz-adv-x="264" d="M106 470T90 489T73 547Q73 598 99 637T182 687L186 661Q123 644 123 602Q123 585 140 581Q189 573 189 527Q189 500 173 485T132 470Q106 470 90 489Z" />
<glyph unicode="&#x2019;" glyph-name="quoteright" horiz-adv-x="264" d="M78 495Q106 502 123 517T141 554Q141 562 138 567T124 575Q104 580 90 591T75 629Q75 656 91 671T132 687Q157 687 174 668T191 609Q191 559 165 520T82 470L78 495Z" />
<glyph unicode="&#x201a;" glyph-name="quotesinglbase" horiz-adv-x="264" d="M78 -81Q106 -74 123 -60T141 -22Q141 -6 124 -2Q75 9 75 53Q75 79 91 94T132 110Q158 110 174 91T191 32Q191 -18 165 -57T82 -107L78 -81Z" />
<glyph unicode="&#x201c;" glyph-name="quotedblleft" horiz-adv-x="414" d="M103 470T87 489T70 547Q70 598 96 637T179 687L183 661Q120 644 120 602Q120 584 137 581Q186 573 186 527Q186 500 170 485T129 470Q103 470 87 489ZM259 470T243 489T226 547Q226
598 252 637T335 687L339 661Q276 644 276 602Q276 584 293 581Q342 573 342 527Q342 500 326 485T285 470Q259 470 243 489Z" />
<glyph unicode="&#x201d;" glyph-name="quotedblright" horiz-adv-x="414" d="M74 495Q102 502 119 517T137 554Q137 572 120 575Q71 583 71 629Q71 656 87 671T128 687Q153 687 170 668T187 609Q187 559 161 520T78 470L74 495ZM231 495Q259 502 276 517T294
554Q294 572 277 575Q228 583 228 629Q228 656 244 671T285 687Q310 687 327 668T344 609Q344 559 318 520T235 470L231 495Z" />
<glyph unicode="&#x201e;" glyph-name="quotedblbase" horiz-adv-x="414" d="M74 -96Q102 -89 119 -74T137 -37Q137 -19 120 -16Q71 -8 71 38Q71 65 87 80T128 96Q153 96 170 77T187 18Q187 -32 161 -71T78 -121L74 -96ZM231 -96Q259 -89 276 -74T294 -37Q294
-19 277 -16Q228 -8 228 38Q228 65 244 80T285 96Q310 96 327 77T344 18Q344 -32 318 -71T235 -121L231 -96Z" />
<glyph unicode="&#x2022;" glyph-name="bullet" horiz-adv-x="417" d="M168 178T133 198T77 254T56 331Q56 372 76 407T132 462T209 483Q250 483 285 463T340 407T361 331Q361 290 341 255T285 199T209 178Q168 178 133 198Z" />
<glyph unicode="&#x2039;" glyph-name="guilsinglleft" horiz-adv-x="287" d="M38 241L231 453H253L137 241L253 29H231L38 241Z" />
<glyph unicode="&#x203a;" glyph-name="guilsinglright" horiz-adv-x="286" d="M149 241L33 453H55L248 241L55 29H33L149 241Z" />
</font>
</defs>
</svg>
