<?xml version="1.0" standalone="no"?>
<!DOCTYPE svg PUBLIC "-//W3C//DTD SVG 1.1//EN" "http://www.w3.org/Graphics/SVG/1.1/DTD/svg11.dtd" >
<svg xmlns="http://www.w3.org/2000/svg">
<metadata>Generated by IcoMoon</metadata>
<defs>
<font id="icomoon" horiz-adv-x="1024">
<font-face units-per-em="1024" ascent="960" descent="-64" />
<missing-glyph horiz-adv-x="1024" />
<glyph unicode="&#x20;" horiz-adv-x="512" d="" />
<glyph unicode="&#xe900;" glyph-name="arrow-left" d="M195.457 452.159l-3.105 3.105 504.736 504.736 142.88-142.88-373.28-373.28 364.96-364.96-142.88-142.88-504.736 504.736z" />
<glyph unicode="&#xe901;" glyph-name="smugmug" d="M998.4 960h-972.8c-15.36 0-25.6-10.24-25.6-25.6v-972.8c0-15.36 10.24-25.6 25.6-25.6h972.8c15.36 0 25.6 10.24 25.6 25.6v972.8c0 15.36-10.24 25.6-25.6 25.6zM640 773.12c7.68 5.12 17.92 7.68 28.16 10.24h20.48c7.68-2.56 17.92-5.12 25.6-10.24 33.28-17.92 35.84-56.32 7.68-79.36-7.68-5.12-17.92-10.24-28.16-12.8-20.48-5.12-40.96 0-58.88 12.8-30.72 23.040-28.16 61.44 5.12 79.36zM332.8 773.12c7.68 5.12 17.92 5.12 25.6 10.24h20.48c7.68-2.56 17.92-5.12 25.6-7.68 35.84-17.92 38.4-58.88 5.12-81.92-7.68-5.12-17.92-7.68-28.16-10.24-17.92-5.12-35.84-2.56-51.2 7.68s-28.16 23.040-25.6 43.52c2.56 17.92 12.8 30.72 28.16 38.4zM844.8 519.68c0 0 0-2.56 0 0-7.68-38.4-17.92-71.68-33.28-104.96-33.28-79.36-76.8-151.040-140.8-209.92-46.080-40.96-99.84-71.68-161.28-81.92-12.8-2.56-25.6-2.56-38.4-5.12h-46.080c-12.8 2.56-25.6 2.56-38.4 5.12-40.96 7.68-79.36 20.48-115.2 46.080-48.64 35.84-76.8 84.48-89.6 140.8-2.56 15.36-5.12 33.28-7.68 48.64v48.64c2.56 12.8 2.56 28.16 5.12 40.96 5.12 33.28 15.36 66.56 30.72 97.28 5.12 10.24 12.8 20.48 23.040 30.72 2.56 2.56 10.24 5.12 15.36 5.12 179.2 0 358.4 0 537.6 0 25.6 0 46.080-15.36 53.76-43.52 0 0 0-2.56 2.56-2.56v-15.36zM279.040 517.12c-5.12 0-7.68-2.56-10.24-5.12-25.6-58.88-35.84-120.32-23.040-184.32 10.24-48.64 33.28-87.040 76.8-112.64 58.88-33.28 122.88-38.4 186.88-23.040 53.76 12.8 99.84 43.52 138.24 84.48 48.64 51.2 81.92 112.64 107.52 176.64 7.68 20.48 15.36 43.52 23.040 64-2.56 0-5.12 0-7.68 0-161.28 0-327.68 0-491.52 0z" />
<glyph unicode="&#xe902;" glyph-name="instagram" d="M512 959.998c139.050 0 156.486-0.59 211.096-3.081 54.496-2.485 91.715-11.141 124.282-23.799 33.669-13.082 62.221-30.59 90.687-59.052 28.464-28.465 45.97-57.019 59.055-90.687 12.656-32.567 21.311-69.786 23.797-124.282 2.491-54.61 3.081-72.046 3.081-211.097 0-139.050-0.59-156.486-3.081-211.096-2.485-54.496-11.141-91.715-23.797-124.282-13.085-33.669-30.591-62.221-59.055-90.687-28.465-28.464-57.019-45.97-90.687-59.055-32.567-12.656-69.786-21.311-124.282-23.797-54.61-2.491-72.046-3.081-211.096-3.081-139.051 0-156.487 0.59-211.097 3.081-54.496 2.485-91.715 11.141-124.282 23.797-33.669 13.085-62.221 30.591-90.687 59.055-28.464 28.465-45.97 57.019-59.052 90.687-12.657 32.567-21.314 69.786-23.799 124.282-2.491 54.61-3.081 72.046-3.081 211.096s0.59 156.487 3.081 211.097c2.485 54.496 11.141 91.715 23.799 124.282 13.082 33.669 30.59 62.221 59.052 90.687 28.465 28.464 57.019 45.97 90.687 59.052 32.567 12.657 69.786 21.314 124.282 23.799 54.61 2.491 72.046 3.081 211.097 3.081zM512 867.745c-136.71 0-152.905-0.522-206.892-2.985-49.92-2.276-77.030-10.617-95.071-17.629-23.899-9.287-40.955-20.382-58.87-38.3-17.917-17.915-29.012-34.971-38.3-58.87-7.011-18.041-15.352-45.151-17.629-95.071-2.464-53.989-2.985-70.182-2.985-206.892s0.522-152.902 2.985-206.891c2.276-49.92 10.617-77.030 17.629-95.071 9.287-23.899 20.385-40.955 38.3-58.87 17.915-17.917 34.971-29.012 58.87-38.3 18.041-7.011 45.151-15.352 95.071-17.629 53.982-2.464 70.172-2.985 206.892-2.985s152.911 0.522 206.891 2.985c49.92 2.276 77.030 10.617 95.071 17.629 23.899 9.287 40.955 20.382 58.87 38.3 17.917 17.915 29.012 34.971 38.3 58.87 7.011 18.041 15.352 45.151 17.629 95.071 2.464 53.989 2.985 70.182 2.985 206.891 0 136.71-0.522 152.905-2.985 206.892-2.276 49.92-10.617 77.030-17.629 95.071-9.287 23.899-20.382 40.955-38.3 58.87-17.915 17.917-34.971 29.012-58.87 38.3-18.041 7.011-45.151 15.352-95.071 17.629-53.989 2.464-70.182 2.985-206.891 2.985zM512 710.917c145.206 0 262.917-117.711 262.917-262.92 0-145.206-117.711-262.917-262.917-262.917-145.207 0-262.92 117.711-262.92 262.917 0 145.207 117.711 262.92 262.92 262.92zM512 277.332c94.256 0 170.666 76.41 170.666 170.666s-76.41 170.667-170.666 170.667c-94.257 0-170.667-76.41-170.667-170.667 0-94.256 76.41-170.666 170.667-170.666zM846.746 721.304c0-33.932-27.509-61.439-61.441-61.439s-61.439 27.506-61.439 61.439 27.509 61.441 61.439 61.441c33.932 0 61.441-27.509 61.441-61.441z" />
<glyph unicode="&#xe903;" glyph-name="linkedin" d="M1023.996-17.451h-226.317v327.25c0 85.657-35.401 144.133-113.248 144.133-59.545 0-92.659-39.461-108.071-77.491-5.78-13.65-4.876-32.665-4.876-51.681v-342.213h-224.211c0 0 2.89 579.694 0 632.387h224.211v-99.249c13.245 43.395 84.891 105.328 199.225 105.328 141.847 0 253.291-90.962 253.291-286.837v-351.63zM120.532 694.036h-1.445c-72.249 0-119.088 48.342-119.088 109.62 0 62.47 48.226 109.798 121.918 109.798 73.632 0 118.908-47.21 120.353-109.62 0-61.277-46.72-109.798-121.738-109.798v0 0zM25.827 614.937h199.586v-632.387h-199.586v632.387z" />
<glyph unicode="&#xe904;" glyph-name="twitter" d="M1024 773.646c-37.625-17.135-78.136-28.721-120.63-33.899 43.395 26.626 76.694 68.846 92.38 119.14-40.631-24.654-85.529-42.59-133.492-52.205-38.226 41.85-92.861 67.984-153.326 67.984-115.941 0-210.005-96.459-210.005-215.413 0-16.887 1.804-33.282 5.41-49.061-174.604 8.999-329.372 94.671-433.052 225.151-18.091-31.926-28.43-68.969-28.43-108.415 0-74.701 37.085-140.65 93.462-179.295-34.38 1.047-66.836 10.847-95.205 26.872v-2.65c0-104.409 72.426-191.498 168.592-211.222-17.61-5.054-36.182-7.581-55.356-7.581-13.524 0-26.746 1.294-39.549 3.821 26.746-85.549 104.281-147.861 196.241-149.526-71.885-57.814-162.522-92.267-260.913-92.267-16.95 0-33.719 0.986-50.127 2.959 92.981-61.019 203.453-96.705 322.040-96.705 386.471 0 597.738 328.205 597.738 612.895 0 9.369-0.18 18.737-0.541 27.92 41.051 30.386 76.694 68.291 104.762 111.497z" />
<glyph unicode="&#xe905;" glyph-name="youtube" d="M406.272 314.243l-0.032 289.752 276.672-145.376-276.64-144.377zM1013.759 654.205c0 0-10.016 71.060-40.704 102.352-38.944 41.090-82.592 41.282-102.592 43.667-143.296 10.441-358.24 10.441-358.24 10.441h-0.447c0 0-214.944 0-358.24-10.441-20.032-2.385-63.647-2.579-102.624-43.667-30.687-31.292-40.672-102.352-40.672-102.352s-10.24-83.467-10.24-166.904v-78.247c0-83.467 10.24-166.904 10.24-166.904s9.984-71.060 40.672-102.352c38.976-41.090 90.144-39.8 112.927-44.086 81.92-7.927 348.16-10.377 348.16-10.377s215.167 0.322 358.464 10.764c20 2.417 63.647 2.61 102.592 43.7 30.687 31.292 40.704 102.352 40.704 102.352s10.24 83.436 10.24 166.904v78.247c0 83.436-10.24 166.904-10.24 166.904v0z" />
<glyph unicode="&#xe906;" glyph-name="facebook" d="M56.517-63.999c-31.222 0-56.517 25.31-56.517 56.52v910.962c0 31.219 25.299 56.516 56.517 56.516h910.97c31.211 0 56.512-25.299 56.512-56.516v-910.962c0-31.215-25.306-56.52-56.512-56.52h-260.941v396.549h133.104l19.93 154.542h-153.034v98.665c0 44.744 12.425 75.235 76.586 75.235l81.835 0.036v138.224c-14.152 1.884-62.731 6.091-119.249 6.091-117.989 0-198.766-72.020-198.766-204.28v-113.971h-133.445v-154.542h133.445v-396.549h-490.435z" />
<glyph unicode="&#xe907;" glyph-name="close" d="M648.534 448l375.466-375.466-136.534-136.534-375.466 375.466-375.466-375.466-136.534 136.534 375.466 375.466-375.466 375.466 136.534 136.534 375.466-375.466 375.466 375.466 136.534-136.534z" />
<glyph unicode="&#xe908;" glyph-name="search" d="M130.529 199.221c-174.038 174.038-174.038 456.212 0 630.25s456.212 174.038 630.25 0c154.162-154.162 172.694-395.008 50.718-569.748l212.503-212.503-111.22-111.22-212.503 212.503c-174.74-121.976-415.588-103.444-569.748 50.718zM649.561 718.251c-112.615 112.615-295.197 112.615-407.812 0s-112.615-295.197 0-407.812c112.615-112.615 295.197-112.615 407.812 0s112.615 295.197 0 407.812z" />
<glyph unicode="&#xe909;" glyph-name="play" d="M955.052 446.722l-886.104-510.722v1024z" />
<glyph unicode="&#xe90a;" glyph-name="teach" d="M516.781 848.781c0 0-22.788-1.89-53.171 45.408-30.383 47.303-113.944 88.924-176.609 51.086-62.67-37.841-85.458-111.629-85.458-111.629s53.171-51.086 199.397-18.923c146.226 32.168 115.841 34.058 115.841 34.058zM565.208 838.376c0 0-41.766 5.677-45.807 13.479s-9.027-9.935-8.313-13.479c0.709-3.546 4.134-20.579-0.069-30.507-4.202-9.935-17.739-56.761-17.739-56.761l26.121-4.966c0 0 8.777 3.546 9.843 8.513s3.205 43.282 25.992 65.276c22.788 21.994 9.972 18.448 9.972 18.448zM378.627 778.778c0 0 136.732-33.347 242.126-3.546 105.399 29.796 202.249-64.565 202.249-64.565s209.369-183.767 54.834-512.98l-76.2-170.281c0 0-37.744-97.207-148.124-73.793 0 0-136.018-37.077-230.021-3.64 0 0-125.228-16.11-175.896 58.986-56.972 84.428-126.762 249.747-138.865 272.452-12.11 22.703-50.56 203.63 32.76 339.857s158.806 163.188 237.142 157.51z" />
<glyph unicode="&#xe90b;" glyph-name="account" d="M185.839 121.836v819.115c0 10.521-8.528 19.049-19.049 19.049h-145.609c-11.696 0-21.179-9.483-21.179-21.179v-983.62c0-10.601 8.597-19.201 19.201-19.201h984.528c11.195 0 20.267 9.072 20.267 20.262v144.599c0 11.579-9.393 20.972-20.977 20.972h-817.186zM986.116 946.053l-350.322-436.72-200.043 146.887c-10.066 6.883-23.804 4.301-30.687-5.768l-368.338-538.753 118.706 27.272 265.324 388.084c5.85 8.559 17.525 10.748 26.081 4.898l184.674-126.261c9.999-6.837 23.647-4.27 30.486 5.729l356 446.998c3.599 5.254 5.541 10.025 5.541 19.725l-0.421 61.147c-4.392 16.735-27.241 21.042-37.002 6.762z" />
<glyph unicode="&#xe90c;" glyph-name="math" d="M643.426 728.657c0-76.027-58.841-137.662-131.427-137.662s-131.427 61.633-131.427 137.662c0 76.027 58.841 137.662 131.427 137.662s131.427-61.633 131.427-137.662zM511.999 647.789c42.641 0 77.205 36.204 77.205 80.868s-34.563 80.868-77.205 80.868c-42.641 0-77.205-36.204-77.205-80.868s34.563-80.868 77.205-80.868zM511.999 828.281c-15.209 0-27.539 12.914-27.539 28.844v74.031c0 15.93 12.33 28.844 27.539 28.844s27.539-12.914 27.539-28.844v-74.031c0-15.93-12.33-28.844-27.539-28.844zM252.005 19.854c-23.847 9.2-36.061 36.909-27.274 61.89l194.878 554.117c8.783 24.979 35.238 21.080 59.087 11.88s36.061-20.224 27.274-45.202l-194.878-554.117c-8.783-24.979-35.238-37.765-59.087-28.567zM284.611 34.005l-52.56-93.872c-5.778-7.553-14.513-4.182-14.236 5.495l18.139 107.149c0.233 8.115 6.877 14.812 12.528 12.631l34.416-13.283c5.655-2.181 6.563-11.792 1.715-18.122zM771.994 19.854c23.847 9.2 36.061 36.909 27.274 61.89l-194.639 553.388c-9.798 27.849-32.732 22.872-59.324 12.609-20.997-8.098-31.743-32.494-24.012-54.486l191.619-544.833c8.783-24.979 35.238-37.765 59.087-28.567zM739.387 34.005l52.56-93.872c5.778-7.553 14.513-4.182 14.236 5.495l-18.139 107.149c-0.233 8.115-6.877 14.812-12.528 12.631l-34.416-13.283c-5.655-2.181-6.563-11.792-1.715-18.122zM220.767 289.773h603.518v32.488h-603.518zM158.871 334.176v-0.007c-14.843 0-26.881-12.605-26.881-28.15 0-15.552 12.038-28.154 26.881-28.154v-0.007h69.366v56.315h-69.366zM865.128 277.86v0.007c14.843 0 26.881 12.605 26.881 28.15 0 15.552-12.038 28.154-26.881 28.154v0.007h-69.366v-56.315h69.366zM511.999 198.958c-15.209 0-27.539 12.914-27.539 28.844v155.933c0 15.93 12.33 28.844 27.539 28.844s27.539-12.914 27.539-28.844v-155.933c0-15.93-12.33-28.844-27.539-28.844z" />
<glyph unicode="&#xe90d;" glyph-name="nursing" d="M892.518 600.283h-228.23v228.23c0 72.32-59.171 131.484-131.487 131.484h-41.603c-72.315 0-131.487-59.164-131.487-131.484v-228.23h-228.23c-72.315 0-131.482-59.164-131.482-131.479v-41.607c0-72.315 59.164-131.479 131.482-131.479h228.23v-228.235c0-72.315 59.171-131.479 131.487-131.479h41.603c72.315 0 131.487 59.164 131.487 131.479v228.235h228.23c72.315 0 131.482 59.164 131.482 131.479v41.607c0 72.315-59.164 131.479-131.482 131.479z" />
<glyph unicode="&#xe90e;" glyph-name="psych" d="M658.845 907.984c0 0 11.825-15.939 14.693-4.502 2.865 11.433 5.733 22.178-6.092 26.68-11.821 4.502-50.509 29.803-57.681 29.803-7.165 0-34.749 0.694-41.557-4.16-6.803-4.851-18.985-23.22-22.205-26.338-3.227-3.116-0.716-6.931 7.88-7.97 8.596-1.041 25.789-1.735 19.34-9.71-6.444-7.97-29.372-24.256-35.464-24.95-6.087-0.694-5.372-18.012-0.716-22.171 4.661-4.164 10.748-10.404 20.060-4.164 9.317 6.244 15.045 6.586 9.676-1.73-5.377-8.317-55.17-56.831-36.903-82.475 18.274-25.644 23.289-19.405 20.422-41.234-2.865-21.834-4.661-48.519-9.676-62.031-5.015-13.517-12.536-43.318 23.644-48.172s92.428-2.077 115.001-29.452c22.569-27.379-99.599 33.267-126.104-14.211-26.509-47.473-6.449-81.781 13.252-83.166s53.021 6.586 91.712 2.077c38.691-4.502 94.931 10.746 93.143 63.762-1.788 53.021-51.951 79.359-53.021 81.089-1.077 1.735-15.763 15.597 6.449 11.44s36.542-29.456 41.202-14.903c4.656 14.553 13.609 39.503-2.511 57.525s-41.202 47.133-60.903 55.45c-19.706 8.317-2.15 7.97 10.032 7.97s36.542 12.823 30.093 40.891c-6.449 28.068-35.11 41.928-35.11 41.928s-52.305 14.553-40.125 26.685c12.18 12.132 11.821 20.099-8.242 22.87-20.055 2.771-45.858 24.256-38.691 31.539 7.165 7.276 10.392 9.353 25.801 2.424 15.402-6.931 32.597-20.793 32.597-20.793zM695.030 926.695c0 0-3.584-37.768-7.165-48.514s69.864-9.011 56.247-112.276c0 0-3.588-27.721 32.242-59.602 35.821-31.881-18.274-89.406-16.841-91.483s9.676-10.394 19.706-2.771c10.025 7.623 22.921 16.284 17.192 3.81s-45.494-42.969-23.285-69.307c0 0 44.061 17.674 68.784-3.116 24.716-20.793 91.712-51.635 111.056-29.109 19.344 22.521 14.329 48.514 4.661 57.173-9.676 8.666-6.808-36.732-14.329-37.768-7.526-1.041-14.329 15.592-14.693 26.338-0.357 10.741-5.733 16.284-26.866 13.168-21.14-3.123-64.846-11.782-56.611-4.507 8.242 7.28 20.060 23.22 52.31 19.757 32.242-3.465 37.257 5.196 34.749 24.95-2.504 19.749 11.825 60.296-32.958 69.649 0 0-26.509 6.237-63.051-49.55 0 0-8.596-9.358-11.825-5.201-3.22 4.16-2.504 10.394 3.945 15.597 6.449 5.196 29.015 24.6 27.945 50.594-1.077 25.986-13.973 57.525-37.973 55.445-24.005-2.077-60.542 5.201-56.958 33.616 0 0-1.793 8.317 25.078-5.545 26.866-13.862 35.464 15.248 32.237 24.95-3.22 9.705-16.12 16.633-21.133 23.215-5.015 6.586-11.821 8.666-7.526 11.782 4.299 3.116 7.165 0.694 16.481-7.623s22.574-15.592 20.060-7.97c-2.504 7.623 0.716 10.394-30.808 24.945-31.522 14.553-50.15 46.784-69.5 61.337-19.34 14.553-31.165 18.021-31.165 18.021zM856.6 783.232c0 0-11.102 7.276-13.973-1.73-2.865-9.011-4.656-16.638 2.15-27.721 6.808-11.088 15.045-46.784 27.234-49.555 12.175-2.771 23.285-9.705 25.432-1.735 2.15 7.974 9.317 18.021-2.511 32.575-11.821 14.558-29.015 39.508-28.661 43.318 0.361 3.815-9.669 4.851-9.669 4.851zM912.13 487.817c0 0 10.387-8.837 27.945 0.174 17.551 9.011 37.257-7.97 37.257-7.97s16.481-24.256 17.197-35.002c0.716-10.741 7.88-24.95-6.449-34.303-14.329-9.358-22.212-18.711-26.509-20.099s-29.734 1.036-37.614 6.581c-7.888 5.545-25.082 17.327-62.342 11.088s-94.216-12.476-106.395-15.248c-12.18-2.771-26.15-9.705-36.542-27.374-10.392-17.674-62.696-93.22-70.579-95.64-7.88-2.429-20.060 4.851-27.582-1.388-7.526-6.237-26.155-21.484-30.454-27.379-4.299-5.887-22.569-33.267-45.138-29.803s-27.225 25.299-25.793 32.23 5.377 78.318 8.596 88.711c3.227 10.394 13.973 15.939 22.212 22.521 8.242 6.586 43.35 25.644 43.35 31.539 0 5.887-5.377 10.394-12.898 6.237-7.526-4.16-35.469-22.528-39.407-19.757-3.945 2.771-18.99 37.426-0.361 64.453s41.202 39.855 66.634 40.547c25.437 0.694 110.34-5.201 116.433-0.347s20.778 24.256 29.738 30.845c8.953 6.581 40.125 38.809 68.779 14.204 28.661-24.6 42.275-42.619 44.429-51.285 2.15-8.659 16.481-6.931 16.12 1.735-0.357 8.659-5.733 28.415 0 29.109s12.898-9.011 19.706-10.746c6.803-1.73 5.015-1.557 9.669-3.637zM886.334 343.487c0 0 0.716 17.674 9.669 4.502 8.96-13.163 4.661-15.939 4.304-21.829-0.361-5.887-9.322-17.67 13.252-15.592s70.934 5.196 71.652 42.27c0.716 37.081-15.045 24.605-24.716 25.991-9.676 1.388-42.634 3.81-50.878 8.659-8.237 4.858-59.826 18.368-105.325-6.931 0 0-3.22-8.659 7.165-19.749 10.392-11.088 9.676-17.327 1.431-15.597-8.237 1.735-37.614 22.178-53.377 16.291s-35.464-15.597-53.377-56.484c-17.918-40.896-41.918-47.478-53.744-51.285-11.821-3.815-32.597-14.211-45.494-27.721-12.898-13.517-41.202-43.663-65.918-34.652-24.721 9.011-28.661-122.327 103.892-93.22 0 0 43.345 16.975 56.243 29.803 12.903 12.818 13.973-7.28 8.96-11.782-5.015-4.507-26.873-13.168-12.541-15.939 14.337-2.771 34.753-13.517 53.382 7.97s30.454 55.445 35.11 55.445c4.661 0 3.227 1.388 3.227-7.623s-2.15-20.099 15.402-19.749c17.551 0.342 44.422-3.815 63.407 17.327 18.99 21.14 34.397 44.355 34.038 52.329-0.357 7.97 5.377 10.047 9.317 8.659s6.087-0.342 6.087-6.931c0-6.581 1.793-12.124 12.898-6.581 11.11 5.545 43.35 34.303 43.35 65.49 0 0-56.963-50.594-99.592-34.997 0 0-20.417 10.047 62.696 34.303 0 0 22.212-1.041 23.285 27.030 0 0-105.68 7.28-113.563-59.947-7.888-67.234-15.052-34.31-15.052-34.31s-8.953 42.627-28.661 36.39c-19.701-6.237-30.088-31.881-50.866-48.172-20.778-16.284-115.717-58.908-135.78-45.743s29.377 19.749 33.315 18.364c3.945-1.388 7.88 2.429 2.15 6.237-5.733 3.815-21.848 18.718-17.551 24.605 4.299 5.895 29.377-6.237 38.691-9.705s61.978-20.793 82.043 41.239c0 0 5.372 6.931 5.015 65.837 0 0-0.361 8.666 6.803 8.666s15.409-9.705 12.541-34.652c-2.865-24.95 69.1 2.622 75.949 13.862 11.821 19.405 31.165 67.919 31.165 67.919zM949.387 192.053c0 0 11.102 5.545 5.733-6.237-5.377-11.782-33.315-86.976-155.119-100.144 0 0-59.115-75.893-116.433-59.602-57.32 16.284-82.759 30.146-104.969 33.611s-64.123 13.862-55.527 47.82c0 0 3.584 11.088 12.536-5.887 8.96-16.983 47.651-34.652 78.46-27.721s79.886 4.851 92.784 1.036c12.898-3.81 57.681-4.16 81.687 39.156 0 0 3.94 6.237 23.644 6.931 19.701 0.694 69.495-4.851 95.295 42.282 0 0 26.866 24.95 41.913 28.758zM863.765 77.353c0 0-64.487-94.257-146.521-72.428 0 0 44.422 15.597 54.093 30.15s48.006 49.208 92.428 42.277zM723.332-23.488c0 0-78.918-17.303-117.144-32.917-32.242-13.175-85.986 13.163-91.001 42.27s42.995 23.914 48.726 22.528c5.733-1.388 30.093-10.741 33.676-9.011s3.22 0.342 4.299 6.931c1.072 6.581-17.197 7.276-17.197 7.276s-60.908 0.694-57.327 36.39c0 0 18.633 7.28 60.908-16.284 42.275-23.569 43.345-31.886 40.841-38.12-2.511-6.237-2.15-20.099-39.407-17.332-37.257 2.771-50.878 15.946-57.681 7.28-6.808-8.666 35.11-39.503 73.799-21.834 38.691 17.674 101.029 32.58 117.505 12.823zM378 905.381c0 0-12.247-15.636-14.804-4.131-2.557 11.5-5.131 22.311 6.808 26.519 11.941 4.203 51.298 28.517 58.46 28.338 7.16-0.183 34.753-0.183 41.429-5.205 6.671-5.017 18.354-23.685 21.496-26.885 3.135-3.2 0.528-6.948-8.093-7.767-8.628-0.827-25.834-1.082-19.602-9.216 6.234-8.129 28.719-24.988 34.79-25.832 6.066-0.848 4.882-18.154 0.116-22.191-4.762-4.041-11.023-10.124-20.164-3.653s-14.862 6.965-9.717-1.485c5.145-8.449 53.623-58.204 34.669-83.378s-23.8-18.812-21.523-40.708c2.277-21.894 3.347-48.615 7.996-62.253 4.656-13.633 11.372-43.62-24.935-47.555-36.301-3.938-92.452 0.251-115.753-26.548-23.294-26.798 100.46 30.743 125.68-17.383 25.227-48.126 4.246-81.913-15.489-82.802-19.735-0.892-52.825 7.919-91.627 4.386-38.8-3.526-94.611 13.129-91.396 66.092 3.215 52.953 54.064 78.016 55.187 79.725 1.116 1.704 16.175 15.192-6.138 11.594s-37.32-28.526-41.586-13.862c-4.266 14.669-12.546 39.836 4.051 57.443 16.604 17.609 42.456 46.075 62.376 53.893 19.923 7.818 2.367 7.919-9.813 8.22-12.175 0.306-36.18 13.739-28.982 41.634 7.206 27.9 36.226 41.034 36.226 41.034s52.676 13.23 40.829 25.661c-11.847 12.43-11.274 20.393 8.849 22.656 20.132 2.268 46.499 23.094 39.53 30.548-6.965 7.459-10.134 9.613-25.719 3.077-15.587-6.543-33.148-19.966-33.148-19.966zM342.333 925c0 0 2.562-37.845 5.859-48.68 3.29-10.828-70.080-7.247-59.253-110.818 0 0 2.836-27.803-33.838-58.771s15.855-89.837 14.37-91.878c-1.489-2.041-9.951-10.148-19.776-2.275-9.818 7.873-22.48 16.855-17.086 4.241s44.326-44.101 21.415-69.866c0 0-43.576 18.773-68.847-1.388-25.268-20.166-93.071-49.307-111.803-26.302s-13.016 48.856-3.114 57.274c9.9 8.418 5.813-36.886 13.305-38.12 7.492-1.224 14.746 15.231 15.397 25.96s6.167 16.134 27.21 12.486c21.048-3.649 64.509-13.414 56.464-5.933-8.042 7.485-19.434 23.721-51.755 21.063-32.329-2.648-37.11 6.138-34.069 25.82 3.044 19.684-10.192 60.573 34.828 68.796 0 0 26.666 5.567 61.694-51.126 0 0 8.346-9.57 11.683-5.495 3.331 4.082 2.786 10.329-3.518 15.691-6.312 5.357-28.35 25.328-26.574 51.281 1.771 25.955 15.515 57.151 39.453 54.469s60.662 3.67 57.848 32.165c0 0 2.020 8.271-25.215-4.907s-35.047 16.134-31.56 25.752c3.485 9.613 16.561 16.216 21.754 22.675 5.193 6.454 12.047 8.362 7.835 11.587s-7.143 0.872-16.677-7.208c-9.538-8.078-22.986-15.021-20.275-7.464s-0.436 10.413 31.476 24.169c31.902 13.756 51.394 45.504 71.126 59.566 19.73 14.062 31.64 17.226 31.64 17.226zM176.955 785.654c0 0 11.3 6.996 13.925-2.085 2.62-9.076 4.208-16.744-2.899-27.656-7.102-10.917-16.296-46.391-28.55-48.851-12.247-2.468-23.535-9.114-25.473-1.092-1.93 8.023-8.828 18.245 3.388 32.503 12.209 14.25 30.071 38.756 29.813 42.576-0.253 3.82 9.801 4.608 9.801 4.608zM113.49 491.738c0 0-10.621-8.572-27.931 0.877-17.303 9.449-37.457-7.025-37.457-7.025s-17.127-23.834-18.13-34.558c-1.010-10.717-8.553-24.74 5.519-34.452 14.079-9.714 21.701-19.267 25.962-20.764 4.266-1.492 29.755 0.294 37.785 5.639 8.025 5.338 25.531 16.689 62.61 9.514 37.074-7.174 93.849-14.848 105.957-17.925 12.1-3.077 25.88-10.358 35.79-28.288 9.912-17.925 60.164-94.76 67.977-97.39 7.813-2.622 20.181 4.347 27.536-2.077s25.564-22.135 29.702-28.133c4.14-6.001 21.668-33.828 44.326-30.926 22.653 2.894 27.897 24.6 26.646 31.565-1.244 6.965-3.261 78.426-6.203 88.899-2.947 10.474-13.539 16.284-21.598 23.077-8.059 6.786-42.646 26.726-42.487 32.613s5.651 10.257 13.062 5.909c7.406-4.347 34.843-23.41 38.858-20.737 4.020 2.673 19.993 36.932 2.099 64.422s-40.113 40.879-65.523 42.212c-25.41 1.338-110.444-2.417-116.401 2.588-5.96 5.001-20.118 24.772-28.897 31.575-8.775 6.808-39.062 39.809-68.377 15.939-29.314-23.875-43.407-41.545-45.793-50.15-2.379-8.611-16.657-6.516-16.067 2.133 0.59 8.654 6.492 28.261 0.786 29.097-5.714 0.836-13.136-8.678-19.988-10.24-6.849-1.557-5.056-1.429-9.767-3.393zM135.389 346.808c0 0-0.241 17.686-9.548 4.745-9.307-12.934-5.083-15.819-4.882-21.711 0.2-5.899 8.832-17.903-13.671-15.257-22.504 2.648-70.767 6.986-70.485 44.068 0.28 37.086 15.698 24.217 25.41 25.36 9.705 1.142 42.718 2.735 51.088 7.379 8.365 4.642 60.301 16.85 105.101-9.587 0 0 2.988-8.738-7.697-19.561s-10.134-17.077-1.851-15.551c8.283 1.525 38.204 21.219 53.801 14.937 15.602-6.287 35.033-16.484 51.84-57.812s40.624-48.514 52.339-52.623c11.717-4.109 32.209-15.026 44.738-28.859 12.524-13.833 40.009-44.687 64.962-36.298 24.952 8.384 25.357-123.009-106.369-90.57 0 0-42.875 18.062-55.423 31.211-12.546 13.139-14.163-6.924-9.269-11.556 4.887-4.629 26.504-13.838 12.105-16.25-14.404-2.412-35.1-12.635-53.146 9.317-18.045 21.945-28.95 56.192-33.606 56.31s-3.188 1.465-3.429-7.541c-0.241-9.011 1.61-20.149-15.93-19.354-17.539 0.786-44.516-2.694-62.925 18.918-18.412 21.607-33.182 45.203-32.611 53.168 0.574 7.955-5.102 10.179-9.081 8.893s-6.097-0.193-6.275-6.777c-0.178-6.581-2.116-12.081-13.069-6.261-10.953 5.827-42.412 35.39-41.566 66.567 0 0 55.578-52.013 98.614-37.498 0 0 20.687 9.531-61.745 35.874 0 0-22.234-0.475-22.55 27.606 0 0 105.841 4.613 111.912-62.786 6.071-67.403 14.12-34.676 14.12-34.676s10.1 42.381 29.63 35.65c19.528-6.731 29.223-32.63 49.558-49.435 20.332-16.807 114.090-61.805 134.498-49.145 20.412 12.659-28.83 20.487-32.811 19.2s-7.813 2.622-1.979 6.287c5.83 3.663 22.35 18.159 18.212 24.15-4.145 6.001-29.538-5.495-38.942-8.721-9.401-3.234-62.513-19.222-80.901 43.289 0 0-5.181 7.063-3.239 65.94 0 0 0.59 8.654-6.569 8.832-7.165 0.183-15.667-9.307-13.469-34.324 2.195-25.013-69.008 4.362-75.546 15.773-11.3 19.694-29.331 68.678-29.331 68.678zM68.28 197.015c0 0-10.953 5.822-5.897-6.092 5.056-11.91 30.965-87.786 152.374-104.019 0 0 57.045-77.351 114.789-62.513 57.739 14.838 83.537 28.049 105.836 30.955s64.477 12.242 56.797 46.408c0 0-3.285 11.18-12.695-5.572s-48.562-33.445-79.175-25.738c-30.613 7.707-79.732 6.863-92.726 3.376s-57.773-2.704-80.597 41.202c0 0-3.772 6.338-23.448 7.524-19.677 1.193-69.61-3.099-94.127 44.665 0 0-26.189 25.615-41.128 29.808zM150.784 80.197c0 0 61.923-95.847 144.525-76.093 0 0-43.993 16.71-53.266 31.502-9.281 14.792-46.663 50.399-91.259 44.588zM288.455-24.148c0 0 78.424-19.289 116.223-35.862 31.876-13.97 86.309 11.001 92.102 39.971 5.801 28.977-42.33 24.988-48.1 23.747s-30.375-9.979-33.91-8.162c-3.531 1.822-3.21 0.427-4.109 7.037-0.894 6.608 17.385 6.842 17.385 6.842s60.903-0.843 58.284 34.932c0 0-18.429 7.745-61.32-14.746-42.892-22.487-44.195-30.777-41.855-37.074 2.345-6.297 1.61-20.145 38.93-18.313 37.32 1.836 51.283 14.655 57.852 5.822s-36.158-38.604-74.36-19.966c-38.204 18.646-100.115 35.108-117.122 15.78z" />
<glyph unicode="&#xe90f;" glyph-name="apply" d="M651.747 919.197v-83.4h-27.413c-164.252 0-328.496 0.011-492.749-0.011-34.066-0.005-38.039-4.007-38.046-38.062-0.011-246.753-0.011-493.508 0.005-740.261 0.005-31.888 4.766-36.562 37.48-36.569 220.778-0.028 441.562-0.028 662.34 0.005 33.032 0.005 38.050 5.165 38.057 38.701 0.023 157.374 0.011 314.75 0.011 472.118v26.257h83.967c0.41-7.928 1.185-15.973 1.19-24.017 0.066-158.901-1.488-317.824 0.708-476.694 1.084-78.017-54.899-122.001-120.165-121.254-223.804 2.543-447.676 2.442-671.485 0.089-67.923-0.713-118.801 47.264-118.386 118.177 1.476 251.329 0.511 502.676 0.612 754.014 0.023 65.587 43.048 111.503 107.241 111.755 174.94 0.685 349.887 0.218 524.827 0.174 3.038 0 6.064-0.511 11.807-1.027zM523.909 332.793c-46.196 46.769-91.147 92.275-133.526 135.184 124.706 127.453 250.587 256.112 374.897 383.16 47.404-47.51 92.477-92.674 135.913-136.199-124.012-125.605-250.47-253.698-377.284-382.144zM946.189 751.091c-47.436 47.427-92.477 92.465-136.885 136.866 17.527 18.245 34.373 40.604 55.965 56.527 13.996 10.312 34.93 15.551 52.741 15.516 51.675-0.108 108.64-70.392 97.266-119.071-3.437-14.702-12.784-29.029-22.507-41.038-14.304-17.678-31.377-33.117-46.583-48.803zM312.64 270.406c14.586 53.051 28.456 103.513 42.173 153.394 0.942 3.414 5.255 4.491 7.724 1.949 38.197-39.286 75.619-77.774 112.537-115.735 2.469-2.543 1.256-6.793-2.189-7.63-47.241-11.502-99.433-24.212-154.719-37.67-3.395-0.83-6.451 2.325-5.525 5.693z" />
<glyph unicode="&#xe910;" glyph-name="info" d="M1024 448c0-282.771-229.229-512-512-512s-512 229.229-512 512c0 282.771 229.229 512 512 512s512-229.229 512-512zM494.269 681.294h112.339l19.309 99.173h-112.339l-19.309-99.173zM413.523 247.737c0-86.010 63.189-93.030 116.727-93.030 19.309 0 39.495 2.632 39.495 2.632l15.798 83.375c0 0-8.776-1.756-19.309-1.756-22.818 0-37.739 8.776-37.739 35.984 0 7.899 1.756 18.43 3.511 27.208l58.802 302.788h-179.916l-16.675-83.375h69.333l-44.759-228.186c-3.511-17.554-5.267-33.351-5.267-45.638z" />
<glyph unicode="&#xe911;" glyph-name="visit" d="M364.385 689.259c-0.342-82.718 64.895-149.781 146.578-150.675 82.278-0.903 151.467 67.103 151.545 148.951 0.078 81.323-67.257 148.914-148.653 149.214-82.333 0.305-149.132-65.602-149.47-147.492zM782.158 651.542c-2.208-40.664-11.89-80.832-22.16-120.113-54.097-206.856-144.292-399.042-242.082-588.013-1.159-2.237-3.507-3.859-6.85-7.415-96.716 188.494-186.351 377.434-241.864 580.602-18.533 67.817-34.268 136.764-26.615 207.425 13.869 128.019 123.308 228.718 252.068 235.55 135.647 7.204 253.158-78.461 283.371-206.545 0 0 8.467-21.669 4.132-101.491z" />
<glyph unicode="&#xe912;" glyph-name="check" d="M341.058 376.902l503.213 497.765 179.729-177.783-682.942-675.55-341.058 337.367 179.729 177.783z" />
<glyph unicode="&#xe913;" glyph-name="arrow-down" d="M507.841 131.457l-3.105-3.105-504.736 504.736 142.88 142.88 373.28-373.28 364.96 364.96 142.88-142.88-504.736-504.736z" />
<glyph unicode="&#xe914;" glyph-name="arrow-right" d="M828.543 443.841l3.105-3.105-504.736-504.736-142.88 142.88 373.28 373.28-364.96 364.96 142.88 142.88 504.736-504.736z" />
<glyph unicode="&#xe915;" glyph-name="arrow-up" d="M516.159 764.543l3.105 3.105 504.736-504.736-142.88-142.88-373.28 373.28-364.96-364.96-142.88 142.88 504.736 504.736z" />
<glyph unicode="&#xe916;" glyph-name="menu" horiz-adv-x="1210" d="M0 960h1210.182v-200.145h-1210.182v200.145zM0 517.818h1210.182v-195.491h-1210.182v195.491zM0 84.945h1210.182v-200.145h-1210.182v200.145z" />
<glyph unicode="&#xe917;" glyph-name="plus" d="M614.4 345.6v-409.6h-204.8v409.6h-409.6v204.8h409.6v409.6h204.8v-409.6h409.6v-204.8h-409.6z" />
<glyph unicode="&#xe918;" glyph-name="minus" d="M1024 550.4v-204.8h-1024v204.8h1024z" />
</font>
</defs>
</svg>
