<?xml version="1.0" standalone="no"?>
<!DOCTYPE svg PUBLIC "-//W3C//DTD SVG 1.1//EN" "http://www.w3.org/Graphics/SVG/1.1/DTD/svg11.dtd">
<svg xmlns="http://www.w3.org/2000/svg">
<defs >
<font id="Rubik" horiz-adv-x="580" ><font-face
    font-family="Rubik Medium"
    units-per-em="1000"
    panose-1="0 0 6 0 0 0 0 0 0 0"
    ascent="935"
    descent="-250"
    alphabetic="0" />
<glyph unicode=" " glyph-name="space" horiz-adv-x="228" />
<glyph unicode="!" glyph-name="exclam" horiz-adv-x="269" d="M83 195T76 202T69 219V676Q69 687 76 693T93 700H176Q186 700 193 693T200 676V219Q200 209 193 202T176 195H93Q83 195 76 202ZM77 0T70 7T63 24V119Q63 130 70 136T87 143H181Q192 143 199 136T206
119V24Q206 14 199 7T181 0H87Q77 0 70 7Z" />
<glyph unicode="&quot;" glyph-name="quotedbl" horiz-adv-x="415" d="M72 466T68 491L48 683Q47 695 53 702T71 710H160Q171 710 177 703T183 683L163 491Q159 466 138 466H93Q72 466 68 491ZM256 466T252 491L232 683Q231 695 237 702T254 710H344Q355 710 361
703T366 683L346 491Q344 466 322 466H277Q256 466 252 491Z" />
<glyph unicode="#" glyph-name="numbersign" horiz-adv-x="691" d="M150 39T144 45T138 60L155 168H70Q60 168 54 174T47 191V249Q47 259 53 265T70 272H170L192 422H96Q86 422 80 428T73 445V503Q73 513 79 519T96 526H208L224 634Q226 643 232 649T247 655H306Q315
655 321 649T327 634L311 526H435L451 634Q453 643 459 649T474 655H533Q542 655 548 649T554 634L538 526H621Q631 526 637 520T644 503V445Q644 435 638 429T621 422H523L500 272H595Q605 272 611 266T618 249V191Q618 181 612 175T595 168H485L469 60Q467 51
461 45T445 39H386Q377 39 371 45T365 60L382 168H258L242 60Q240 51 234 45T218 39H159Q150 39 144 45ZM273 272H397L419 422H296L273 272Z" />
<glyph unicode="$" glyph-name="dollar" horiz-adv-x="644" d="M280 -100T273 -94T266 -76V-6Q194 1 143 29T65 97T36 184Q36 192 42 198T58 205H148Q160 205 166 201T179 186Q190 152 225 129T323 106Q392 106 427 129T463 194Q463 221 445 239T391 270T283 303Q165
331 110 377T55 509Q55 587 111 641T266 707V776Q266 787 273 793T290 800H352Q363 800 369 794T376 776V705Q441 696 487 667T558 598T585 522Q585 513 579 507T564 501H469Q448 501 440 519Q434 551 401 572T317 594Q262 594 231 573T199 512Q199 485 214 467T264
435T363 405Q452 385 504 360T582 297T607 200Q607 113 545 59T376 -6V-76Q376 -87 370 -93T352 -100H290Q280 -100 273 -94Z" />
<glyph unicode="%" glyph-name="percent" horiz-adv-x="785" d="M126 348T87 383T43 478Q42 495 42 523Q42 553 43 571Q47 633 85 669T192 705Q261 705 299 669T342 571Q344 535 344 523Q344 512 342 478Q338 418 299 383T192 348Q126 348 87 383ZM101 0T95 5T89
20Q89 26 93 31L586 681Q594 691 601 695T621 700H674Q684 700 689 695T695 680Q695 674 691 669L198 19Q190 9 183 5T164 0H111Q101 0 95 5ZM221 423T234 440T251 483Q253 517 253 525Q253 536 251 566Q249 592 235 609T192 627Q164 627 150 610T134 566Q133 551
133 525Q133 500 134 483Q136 458 149 441T192 423Q221 423 234 440ZM526 -6T487 30T443 128Q442 145 442 173Q442 202 443 220Q447 282 485 318T592 354Q662 354 700 318T742 220Q744 184 744 173Q744 162 742 128Q738 67 699 31T592 -6Q526 -6 487 30ZM622 72T635
89T651 132Q653 166 653 175Q653 185 651 215Q649 241 635 258T592 276Q564 276 550 259T534 215Q533 200 533 175Q533 149 534 132Q536 107 549 90T592 72Q622 72 635 89Z" />
<glyph unicode="&amp;" glyph-name="ampersand" horiz-adv-x="719" d="M221 -10T166 15T81 85T50 191Q50 253 86 298T188 382Q146 427 128 463T109 539Q109 585 133 624T203 686T312 710Q372 710 416 688T485 626T509 541Q509 482 472 440T364 358L507 217Q542
278 559 349Q560 357 565 361T580 366H654Q663 366 669 360T675 346Q674 307 647 249T583 141L690 33Q697 26 697 18Q697 10 692 5T678 0H580Q564 0 554 10L499 63Q417 -10 294 -10Q221 -10 166 15ZM342 460T367 483T392 538Q392 570 369 590T312 611Q279 611 256
591T232 538Q232 515 245 492T293 434Q342 460 367 483ZM370 95T421 146L262 302Q177 256 177 196Q177 150 211 123T294 95Q370 95 421 146Z" />
<glyph unicode="&apos;" glyph-name="quotesingle" horiz-adv-x="231" d="M72 466T68 491L48 683Q47 695 53 702T71 710H160Q171 710 177 703T183 683L163 491Q159 466 138 466H93Q72 466 68 491Z" />
<glyph unicode="(" glyph-name="parenleft" horiz-adv-x="362" d="M179 -159T114 -48T49 309Q49 554 114 665T315 776Q325 776 332 769T339 752V691Q339 681 332 674T316 667Q261 665 230 627T186 512T172 309Q172 183 185 106T230 -10T316 -50Q325 -50 332 -57T339
-74V-135Q339 -145 332 -152T315 -159Q179 -159 114 -48Z" />
<glyph unicode=")" glyph-name="parenright" horiz-adv-x="362" d="M38 -159T31 -152T24 -135V-74Q24 -64 31 -57T46 -50Q101 -48 132 -10T177 105T191 309Q191 435 178 512T133 627T46 667Q38 667 31 674T24 691V752Q24 762 31 769T48 776Q183 776 248 665T313
309Q313 64 248 -47T48 -159Q38 -159 31 -152Z" />
<glyph unicode="*" glyph-name="asterisk" horiz-adv-x="445" d="M92 442Q83 448 83 460Q83 466 87 472Q87 472 92 479L161 539L70 547L62 549Q54 551 50 559T48 577L71 647Q73 655 81 659T98 661Q101 661 106 657L184 611L165 700L164 708Q164 716 170 723T186
730H259Q268 730 274 723T281 708L280 700L260 611L339 657L347 661Q349 662 352 662Q360 662 366 658T374 647L398 577L399 571Q399 564 395 558T383 549L376 547L284 538L353 479Q359 473 359 472Q363 466 363 460Q363 448 354 442L295 398Q289 395 282 395Q269
395 264 403Q263 404 262 405T259 410L223 495L186 410Q184 407 183 406T181 403Q176 395 163 395Q156 395 150 398L92 442Z" />
<glyph unicode="+" glyph-name="plus" horiz-adv-x="614" d="M267 33T260 40T253 57V252H62Q52 252 45 259T38 276V330Q38 340 45 347T62 354H253V543Q253 554 260 560T277 567H337Q348 567 354 561T361 543V354H552Q562 354 569 347T576 330V276Q576 266 570
259T552 252H361V57Q361 47 355 40T337 33H277Q267 33 260 40Z" />
<glyph unicode="," glyph-name="comma" horiz-adv-x="265" d="M51 -75T46 -69T42 -54L68 117Q74 149 101 149H194Q201 149 206 144T212 131Q212 126 209 117L144 -49Q134 -75 111 -75H59Q51 -75 46 -69Z" />
<glyph unicode="-" glyph-name="hyphen" horiz-adv-x="480" d="M76 242T69 249T62 266V334Q62 344 69 351T86 358H394Q405 358 411 352T418 334V266Q418 256 411 249T394 242H86Q76 242 69 249Z" />
<glyph unicode="." glyph-name="period" horiz-adv-x="269" d="M74 0T67 7T60 24V125Q60 135 67 142T84 149H185Q195 149 202 142T209 125V24Q209 14 203 7T185 0H84Q74 0 67 7Z" />
<glyph unicode="/" glyph-name="slash" horiz-adv-x="509" d="M37 -84T31 -78T25 -63Q25 -57 27 -52L367 765Q371 773 379 779T399 786H464Q473 786 479 780T485 765Q485 759 483 754L141 -63Q138 -71 131 -77T110 -84H45Q37 -84 31 -78Z" />
<glyph unicode="0" glyph-name="zero" horiz-adv-x="659" d="M195 -10T130 64T58 258Q57 285 57 350Q57 416 58 444Q63 562 130 636T329 710Q461 710 528 636T600 444Q602 388 602 350Q602 312 600 258Q594 138 529 64T329 -10Q195 -10 130 64ZM391 107T422 147T455
263Q456 292 456 352Q456 412 455 439Q453 512 422 553T329 595Q267 594 236 553T203 439Q202 412 202 352Q202 292 203 263Q205 188 236 148T329 107Q391 107 422 147Z" />
<glyph unicode="1" glyph-name="one" horiz-adv-x="464" d="M267 0T260 7T253 24V540L102 424Q96 419 87 419Q75 419 68 429L25 485Q20 492 20 499Q20 511 31 519L255 693Q266 700 280 700H370Q380 700 387 693T394 676V24Q394 14 387 7T370 0H277Q267 0 260 7Z" />
<glyph unicode="2" glyph-name="two" horiz-adv-x="620" d="M59 0T52 7T45 24V76Q45 104 70 123L226 278Q297 334 335 369T393 435T412 494Q412 541 387 568T311 595Q261 595 233 566T197 489Q194 477 186 472T167 466H77Q68 466 62 472T56 487Q58 546 88 597T176
680T310 712Q390 712 446 685T530 609T558 500Q558 433 521 379T404 262L265 121H548Q559 121 566 114T573 96V24Q573 13 566 7T548 0H69Q59 0 52 7Z" />
<glyph unicode="3" glyph-name="three" horiz-adv-x="631" d="M223 -10T162 18T70 88T37 176Q37 185 43 191T58 197H150Q172 197 180 177Q202 106 312 106Q373 106 407 134T442 214Q442 266 411 289T318 313H215Q205 313 198 320T191 337V380Q191 399 204 410L382
584H97Q86 584 79 591T72 608V675Q72 686 79 693T97 700H527Q538 700 545 693T552 675V614Q552 597 539 586L367 409L379 408Q475 400 531 350T588 207Q588 141 553 92T455 17T312 -10Q223 -10 162 18Z" />
<glyph unicode="4" glyph-name="four" horiz-adv-x="653" d="M385 0T378 7T371 24V152H54Q44 152 37 159T30 176V245Q30 261 41 275L336 683Q341 691 351 695T373 700H483Q494 700 500 694T507 676V271H597Q608 271 614 265T621 247V176Q621 166 615 159T597 152H507V24Q507
14 501 7T483 0H395Q385 0 378 7ZM171 267H374V554L171 267Z" />
<glyph unicode="5" glyph-name="five" horiz-adv-x="621" d="M224 -11T164 17T72 91T39 190V192Q39 200 45 205T60 211H155Q178 211 184 191Q198 147 230 126T307 105Q363 105 399 139T436 233Q436 287 400 320T307 354Q277 354 258 346T221 324Q219 323 212 318T200
311T188 309H94Q85 309 79 315T72 331L106 672Q107 685 115 692T136 700H512Q523 700 529 694T536 676V608Q536 598 530 591T512 584H223L207 422Q230 437 260 446T338 456Q403 456 458 429T547 350T581 230Q581 157 547 103T451 19T307 -11Q224 -11 164 17Z" />
<glyph unicode="6" glyph-name="six" horiz-adv-x="628" d="M236 -10T173 22T75 110T40 236Q40 324 118 430L300 680Q308 690 315 695T335 700H430Q439 700 444 694T450 678Q450 671 446 665L306 472Q322 476 348 476Q415 475 471 444T561 358T595 238Q595 170
562 114T466 24T320 -10Q236 -10 173 22ZM374 106T413 140T452 236Q452 296 414 330T318 365Q262 365 224 331T185 236Q185 175 223 141T318 106Q374 106 413 140Z" />
<glyph unicode="7" glyph-name="seven" horiz-adv-x="545" d="M136 0T130 6T124 22Q124 25 126 31L366 580H53Q43 580 36 587T29 604V675Q29 686 35 693T53 700H493Q504 700 511 693T518 675V612Q518 591 508 569L270 24Q264 13 257 7T238 0H145Q136 0 130 6Z" />
<glyph unicode="8" glyph-name="eight" horiz-adv-x="657" d="M241 -10T179 17T83 94T50 206Q50 262 77 305T152 372Q115 395 95 431T75 515Q75 603 141 656T328 710Q448 710 514 657T580 516Q580 469 561 433T504 372Q552 349 579 306T607 205Q607 142 574 94T478
18T328 -10Q241 -10 179 17ZM380 417T414 442T449 510Q449 553 415 579T328 605Q276 605 242 579T208 510Q208 467 242 442T328 416Q380 417 414 442ZM387 95T426 125T466 205Q466 255 427 285T328 315Q269 315 230 286T191 205Q191 155 230 125T328 95Q387 95
426 125Z" />
<glyph unicode="9" glyph-name="nine" horiz-adv-x="618" d="M174 0T168 6T162 22Q162 28 167 35L314 237Q297 233 272 233Q206 235 152 266T65 350T33 467Q33 530 64 585T156 675T303 710Q390 710 452 678T545 591T577 471Q577 430 564 394T535 332T488 263L313
20Q305 10 298 5T279 0H183Q174 0 168 6ZM359 341T396 375T433 467Q433 525 396 559T304 594Q250 594 213 560T176 467Q176 410 212 376T304 341Q359 341 396 375Z" />
<glyph unicode=":" glyph-name="colon" horiz-adv-x="275" d="M77 350T70 357T63 374V470Q63 481 70 488T87 495H187Q198 495 205 488T212 470V374Q212 364 205 357T187 350H87Q77 350 70 357ZM77 0T70 7T63 24V120Q63 131 70 138T87 145H187Q198 145 205 138T212
120V24Q212 14 205 7T187 0H87Q77 0 70 7Z" />
<glyph unicode=";" glyph-name="semicolon" horiz-adv-x="287" d="M90 350T83 357T76 374V470Q76 481 83 488T100 495H200Q211 495 218 488T225 470V374Q225 364 218 357T200 350H100Q90 350 83 357ZM60 -75T55 -69T51 -54L78 117Q80 131 88 140T110 149H203Q210
149 215 144T221 131Q221 126 218 117L154 -49Q148 -61 141 -68T120 -75H68Q60 -75 55 -69Z" />
<glyph unicode="&lt;" glyph-name="less" horiz-adv-x="505" d="M411 55T401 63L62 295Q47 305 40 315T33 339V363Q33 377 39 387T62 408L401 639Q412 648 421 648Q430 648 435 643T441 627V550Q441 537 435 530T416 513L174 351L416 189Q429 180 435 173T441
153V75Q441 66 435 61T421 55Q411 55 401 63Z" />
<glyph unicode="=" glyph-name="equal" horiz-adv-x="568" d="M80 373T73 380T66 397V453Q66 464 73 470T90 477H478Q488 477 495 470T502 453V397Q502 387 495 380T478 373H90Q80 373 73 380ZM80 123T73 130T66 147V203Q66 214 73 220T90 227H478Q488 227 495
220T502 203V147Q502 137 495 130T478 123H90Q80 123 73 130Z" />
<glyph unicode="&gt;" glyph-name="greater" horiz-adv-x="504" d="M76 55T70 60T64 75V153Q64 165 70 172T89 189L331 351L89 513Q76 522 70 529T64 550V627Q64 637 70 642T84 648Q93 648 104 639L443 408Q459 397 465 387T472 363V339Q472 325 465 315T443 295L104
63Q94 55 84 55Q76 55 70 60Z" />
<glyph unicode="?" glyph-name="question" horiz-adv-x="566" d="M229 189T223 195T217 209Q217 230 218 241Q223 288 248 324T317 404Q351 438 367 460T386 506Q390 547 360 571T286 595Q189 595 169 498Q162 475 140 475H53Q43 475 37 482T30 500Q32 555 63
603T154 680T293 710Q376 710 429 684T507 616T532 531Q532 481 510 444T443 359Q411 325 394 301T370 248Q366 223 365 214Q360 201 354 195T337 189H238Q229 189 223 195ZM225 0T218 7T211 24V113Q211 123 218 130T235 137H334Q344 137 351 130T359 113V24Q359
14 352 7T334 0H235Q225 0 218 7Z" />
<glyph unicode="@" glyph-name="at" horiz-adv-x="839" d="M252 -125T161 -43T54 186Q52 224 52 273Q52 323 54 357Q64 448 107 518T227 630T412 671Q767 671 785 357Q787 317 787 292Q787 255 785 229Q781 157 741 118T641 79Q597 79 568 96T524 133Q508 106
480 88T396 69Q321 69 278 123T234 273Q234 369 277 423T394 478Q430 478 454 466T495 431V446Q495 457 502 463T519 470H559Q570 470 576 464T583 446V238Q583 201 598 182T641 163Q672 163 685 186T698 238Q700 268 700 301Q700 316 698 352Q690 472 625 529T412
586Q290 586 223 525T143 352Q140 327 140 273Q140 220 143 191Q154 79 223 20T420 -40Q482 -40 522 -32T582 -12T628 18Q637 25 642 28T656 32H712Q722 32 729 25T736 8Q736 3 730 -7Q624 -125 420 -125Q252 -125 161 -43ZM454 153T474 183T495 273Q495 333 475
363T408 394Q322 394 322 273Q322 218 343 186T408 153Q454 153 474 183Z" />
<glyph unicode="A" glyph-name="A" horiz-adv-x="694" d="M26 0T20 6T14 21L16 30L256 675Q266 700 292 700H402Q428 700 438 675L678 30L680 21Q680 12 674 6T659 0H570Q549 0 541 19L495 140H199L153 19Q145 0 124 0H35Q26 0 20 6ZM234 256H460L347 564L234 256Z" />
<glyph unicode="B" glyph-name="B" horiz-adv-x="687" d="M92 0T85 7T78 24V675Q78 686 84 693T102 700H392Q509 700 567 649T625 508Q625 456 600 420T540 367Q582 348 611 305T640 207Q640 114 577 57T401 0H102Q92 0 85 7ZM374 413Q425 413 452 438T480 505Q480
547 453 570T374 593H219V413H374ZM384 107Q436 107 465 135T494 208Q494 252 465 280T384 309H219V107H384Z" />
<glyph unicode="C" glyph-name="C" horiz-adv-x="685" d="M210 -10T135 60T54 261Q53 288 53 349Q53 411 54 439Q59 567 135 638T348 710Q437 710 503 680T605 596T644 477V475Q644 467 638 462T623 456H526Q514 456 508 461T498 481Q483 543 446 568T348 594Q205
594 199 434Q198 407 198 351Q198 295 199 266Q205 106 348 106Q408 106 445 131T498 219Q502 233 508 238T526 244H623Q632 244 638 238T644 223Q642 157 606 104T503 21T348 -10Q210 -10 135 60Z" />
<glyph unicode="D" glyph-name="D" horiz-adv-x="703" d="M92 0T85 7T78 24V675Q78 686 84 693T102 700H346Q641 700 647 428Q649 370 649 350Q649 331 647 273Q643 133 572 67T351 0H102Q92 0 85 7ZM346 116Q429 116 466 153T505 276Q507 336 507 351Q507 367
505 425Q503 507 464 545T341 584H219V116H346Z" />
<glyph unicode="E" glyph-name="E" horiz-adv-x="623" d="M92 0T85 7T78 24V675Q78 686 84 693T102 700H543Q554 700 561 693T568 675V608Q568 597 561 591T543 584H215V409H521Q532 409 539 402T546 384V321Q546 310 539 304T521 297H215V116H551Q562 116 569
110T576 92V24Q576 13 569 7T551 0H102Q92 0 85 7Z" />
<glyph unicode="F" glyph-name="F" horiz-adv-x="602" d="M92 0T85 7T78 24V675Q78 686 84 693T102 700H537Q548 700 555 693T562 675V603Q562 593 555 586T537 579H217V391H517Q528 391 535 384T542 367V295Q542 285 535 278T517 271H217V24Q217 14 210 7T192
0H102Q92 0 85 7Z" />
<glyph unicode="G" glyph-name="G" horiz-adv-x="701" d="M213 -10T137 61T55 259Q54 288 54 352Q54 416 55 445Q59 569 137 639T351 710Q443 710 509 679T610 601T646 509Q646 500 640 494T624 488H519Q509 488 504 492T495 505Q481 542 446 568T351 594Q281
594 242 557T200 440Q199 411 199 352Q199 294 200 264Q202 183 242 145T352 106Q423 106 466 144T509 258V289H387Q377 289 370 296T363 313V368Q363 378 370 385T387 392H627Q638 392 645 385T652 368V262Q652 179 615 118T510 23T351 -10Q213 -10 137 61Z" />
<glyph unicode="H" glyph-name="H" horiz-adv-x="730" d="M92 0T85 7T78 24V675Q78 686 84 693T102 700H194Q205 700 212 693T219 675V418H511V675Q511 686 518 693T535 700H628Q639 700 645 693T652 675V24Q652 14 646 7T628 0H535Q525 0 518 7T511 24V291H219V24Q219
14 212 7T194 0H102Q92 0 85 7Z" />
<glyph unicode="I" glyph-name="I" horiz-adv-x="300" d="M92 0T85 7T78 24V676Q78 687 85 693T102 700H198Q209 700 215 694T222 676V24Q222 14 216 7T198 0H102Q92 0 85 7Z" />
<glyph unicode="J" glyph-name="J" horiz-adv-x="653" d="M230 -10T169 15T70 90T30 211Q30 220 36 226T52 233H149Q172 233 178 208Q186 156 220 131T308 106Q370 106 403 146T437 260V580H98Q88 580 81 587T74 605V676Q74 687 81 693T98 700H557Q568 700 574
693T581 675V256Q581 173 547 113T451 22T304 -10Q230 -10 169 15Z" />
<glyph unicode="K" glyph-name="K" horiz-adv-x="633" d="M92 0T85 7T78 24V675Q78 686 84 693T102 700H192Q203 700 210 693T217 675V441L440 682Q455 700 479 700H581Q589 700 595 694T602 679Q602 672 597 667L325 365L617 34Q621 27 621 21Q621 12 615 6T601
0H496Q475 0 466 8T456 18L217 282V24Q217 14 210 7T192 0H102Q92 0 85 7Z" />
<glyph unicode="L" glyph-name="L" horiz-adv-x="581" d="M92 0T85 7T78 24V676Q78 687 85 693T102 700H196Q207 700 213 694T220 676V120H537Q548 120 555 113T562 96V24Q562 14 555 7T537 0H102Q92 0 85 7Z" />
<glyph unicode="M" glyph-name="M" horiz-adv-x="812" d="M92 0T85 7T78 24V675Q78 686 84 693T102 700H183Q202 700 213 681L406 323L599 681Q610 700 629 700H709Q720 700 727 693T734 675V24Q734 13 727 7T709 0H623Q613 0 606 7T599 24V454L460 190Q449 168
427 168H385Q364 168 351 190L212 454V24Q212 14 206 7T188 0H102Q92 0 85 7Z" />
<glyph unicode="N" glyph-name="N" horiz-adv-x="707" d="M92 0T85 7T78 24V675Q78 686 84 693T102 700H180Q199 700 209 683L495 239V675Q495 686 501 693T519 700H605Q616 700 623 693T630 675V25Q630 14 623 7T606 0H527Q507 0 497 17L212 451V24Q212 14 206
7T188 0H102Q92 0 85 7Z" />
<glyph unicode="O" glyph-name="O" horiz-adv-x="695" d="M211 -10T135 59T55 264Q54 293 54 349Q54 406 55 435Q59 568 137 639T348 710Q480 710 558 639T641 435Q643 377 643 349Q643 322 641 264Q637 128 561 59T348 -10Q211 -10 135 59ZM415 106T454 146T496
269Q498 329 498 350Q498 373 496 431Q493 513 453 553T348 594Q282 594 242 554T200 431Q199 402 199 350Q199 299 200 269Q202 187 241 147T348 106Q415 106 454 146Z" />
<glyph unicode="P" glyph-name="P" horiz-adv-x="660" d="M92 0T85 7T78 24V675Q78 686 84 693T102 700H370Q491 700 560 643T629 477Q629 369 560 314T370 258H223V24Q223 13 216 7T198 0H102Q92 0 85 7ZM365 370Q423 370 453 397T484 478Q484 530 455 559T365
588H221V370H365Z" />
<glyph unicode="Q" glyph-name="Q" horiz-adv-x="695" d="M514 -65T506 -59T490 -42L453 8Q408 -10 347 -10Q211 -10 135 59T54 264Q53 293 53 349Q53 406 54 435Q58 568 136 639T347 710Q480 710 558 639T640 435Q642 377 642 349Q642 322 640 264Q636 132 568
66L638 -34Q641 -40 641 -44V-46Q641 -54 635 -59T621 -65H527Q514 -65 506 -59ZM414 106T453 146T495 269Q497 329 497 350Q497 373 495 431Q493 513 453 553T347 594Q281 594 242 554T199 431Q198 402 198 350Q198 299 199 269Q202 186 241 146T347 106Q414 106
453 146Z" />
<glyph unicode="R" glyph-name="R" horiz-adv-x="674" d="M92 0T85 7T78 24V675Q78 686 84 693T102 700H361Q484 700 553 643T623 481Q623 408 588 359T490 287L635 32Q638 26 638 21Q638 12 632 6T617 0H525Q509 0 500 7T484 27L356 264H219V24Q219 14 212 7T194
0H102Q92 0 85 7ZM358 378Q418 378 448 404T478 482Q478 533 448 560T358 588H219V378H358Z" />
<glyph unicode="S" glyph-name="S" horiz-adv-x="643" d="M232 -10T168 17T71 88T36 184Q36 192 42 198T57 205H148Q159 205 166 200T179 186Q189 152 224 129T322 106Q392 106 427 129T463 194Q463 221 445 239T391 270T282 303Q164 331 109 377T54 509Q54 567
86 612T177 684T316 710Q399 710 459 681T551 609T585 522Q585 514 579 508T564 501H469Q447 501 439 519Q434 551 400 572T316 594Q261 594 230 573T198 512Q198 485 214 467T264 436T363 405Q452 385 504 360T582 297T607 200Q607 135 572 88T472 15T322 -10Q232
-10 168 17Z" />
<glyph unicode="T" glyph-name="T" horiz-adv-x="606" d="M246 0T239 7T232 24V575H47Q37 575 30 582T23 600V675Q23 686 29 693T47 700H558Q569 700 576 693T583 675V600Q583 589 576 582T558 575H374V24Q374 14 368 7T350 0H256Q246 0 239 7Z" />
<glyph unicode="U" glyph-name="U" horiz-adv-x="714" d="M222 -10T147 59T72 268V675Q72 686 78 693T96 700H188Q199 700 206 693T213 675V268Q213 189 250 149T357 109Q426 109 463 149T501 268V675Q501 686 508 693T526 700H618Q629 700 635 693T642 675V268Q642
128 568 59T358 -10Q222 -10 147 59Z" />
<glyph unicode="V" glyph-name="V" horiz-adv-x="675" d="M252 0T243 28L29 670Q28 673 28 679Q28 688 34 694T49 700H138Q151 700 159 693T170 678L337 166L505 678Q507 686 515 693T536 700H626Q634 700 640 694T647 679L645 670L432 28Q422 0 393 0H282Q252 0 243 28Z" />
<glyph unicode="W" glyph-name="W" horiz-adv-x="816" d="M164 0T157 30L39 671L38 679Q38 688 44 694T59 700H149Q162 700 168 696T176 680L259 230L348 520Q358 545 381 545H436Q449 545 457 538T468 520L558 230L640 680Q643 700 668 700H758Q766 700 772 694T778
679Q778 674 777 671L659 30Q657 16 648 8T623 0H555Q541 0 532 7T520 25L408 357L296 25Q288 0 261 0H193Q164 0 157 30Z" />
<glyph unicode="X" glyph-name="X" horiz-adv-x="663" d="M30 0T24 6T17 21Q17 25 21 33L244 357L35 667Q31 673 31 679Q31 688 37 694T52 700H157Q175 700 188 681L334 467L481 681Q492 700 512 700H611Q619 700 625 694T632 679Q632 675 628 667L419 357L643
33Q646 27 646 21Q646 12 640 6T625 0H518Q500 0 487 18L329 243L173 18Q160 0 142 0H38Q30 0 24 6Z" />
<glyph unicode="Y" glyph-name="Y" horiz-adv-x="665" d="M276 0T269 7T262 24V249L25 668Q22 677 22 679Q22 688 28 694T43 700H133Q152 700 164 681L332 391L501 681Q505 688 512 694T531 700H621Q630 700 636 694T642 679Q642 673 639 668L403 249V24Q403 13
396 7T378 0H286Q276 0 269 7Z" />
<glyph unicode="Z" glyph-name="Z" horiz-adv-x="627" d="M52 0T46 7T39 25V96Q39 109 43 117T54 133L401 580H73Q63 580 56 587T49 605V675Q49 686 55 693T73 700H552Q563 700 570 693T577 675V605Q577 585 564 570L225 120H564Q575 120 581 114T588 96V24Q588
14 582 7T564 0H63Q52 0 46 7Z" />
<glyph unicode="[" glyph-name="bracketleft" horiz-adv-x="356" d="M81 -159T74 -153T67 -135V752Q67 763 74 769T91 776H305Q316 776 322 770T329 752V690Q329 680 323 673T305 666H190V-41H305Q315 -41 322 -48T329 -65V-135Q329 -146 323 -152T305 -159H91Q81
-159 74 -153Z" />
<glyph unicode="\" glyph-name="backslash" horiz-adv-x="509" d="M386 -84T379 -78T368 -63L26 754Q24 759 24 765Q24 774 30 780T44 786H110Q122 786 130 780T141 765L482 -52Q484 -57 484 -63Q484 -72 478 -78T463 -84H399Q386 -84 379 -78Z" />
<glyph unicode="]" glyph-name="bracketright" horiz-adv-x="356" d="M40 -159T33 -152T26 -135V-65Q26 -55 33 -48T50 -41H165V666H50Q40 666 33 673T26 690V752Q26 762 33 769T50 776H265Q276 776 282 770T289 752V-135Q289 -146 283 -152T265 -159H50Q40 -159
33 -152Z" />
<glyph unicode="^" glyph-name="asciicircum" horiz-adv-x="449" d="M56 583T56 596Q56 605 65 614L162 714Q172 724 179 727T197 730H252Q262 730 269 727T286 714L384 614Q393 605 393 596Q393 583 378 583H341Q322 583 309 590L224 643L139 590Q128 583 108
583H71Q56 583 56 596Z" />
<glyph unicode="_" glyph-name="underscore" horiz-adv-x="741" d="M67 -57T60 -51T53 -33V34Q53 45 60 51T77 58H664Q675 58 682 51T689 34V-33Q689 -43 682 -50T664 -57H77Q67 -57 60 -51Z" />
<glyph unicode="`" glyph-name="grave" horiz-adv-x="369" d="M217 595T210 598T193 608L68 710Q63 715 63 722Q63 731 68 736T82 742H183Q196 742 203 738T220 723L302 624Q307 619 307 611Q307 595 291 595H228Q217 595 210 598Z" />
<glyph unicode="a" glyph-name="a" horiz-adv-x="572" d="M166 -10T124 10T57 66T32 143Q32 211 87 253T238 310L375 330V351Q375 394 353 416T283 438Q250 438 230 426T198 402T181 385Q177 373 166 373H88Q79 373 73 379T66 395Q67 420 90 451T163 506T284 530Q402
530 456 477T510 338V24Q510 14 504 7T486 0H403Q393 0 386 7T379 24V63Q357 31 317 11T217 -10Q166 -10 124 10ZM306 86T341 122T376 226V246L276 230Q161 212 161 153Q161 121 187 104T251 86Q306 86 341 122Z" />
<glyph unicode="b" glyph-name="b" horiz-adv-x="614" d="M251 -10T196 61V24Q196 14 189 7T171 0H91Q81 0 74 7T67 24V686Q67 697 74 703T91 710H178Q189 710 195 704T202 686V464Q258 530 355 530Q456 530 510 465T568 293Q569 281 569 260Q569 240 568 227Q564
119 510 55T355 -10Q251 -10 196 61ZM424 98T431 230Q432 240 432 260Q432 280 431 290Q424 422 317 422Q262 422 233 387T202 302Q201 290 201 263Q201 237 202 225Q204 172 232 135T317 98Q424 98 431 230Z" />
<glyph unicode="c" glyph-name="c" horiz-adv-x="572" d="M181 -10T116 51T46 220L45 260L46 300Q50 408 115 469T291 530Q370 530 424 502T505 434T534 356Q535 346 528 339T510 332H421Q410 332 405 336T395 353Q380 391 356 408T293 425Q242 425 214 393T183
295L182 258L183 225Q189 95 293 95Q332 95 356 111T395 167Q399 178 404 183T421 188H510Q520 188 527 181T534 164Q532 129 506 89T426 19T291 -10Q181 -10 116 51Z" />
<glyph unicode="d" glyph-name="d" horiz-adv-x="614" d="M158 -10T104 54T45 227L44 260L45 293Q49 399 103 464T259 530Q355 530 412 464V686Q412 697 419 703T436 710H523Q534 710 540 704T547 686V24Q547 14 541 7T523 0H442Q432 0 425 7T418 24V61Q363 -10
259 -10Q158 -10 104 54ZM354 98T381 134T412 225Q413 237 413 263Q413 290 412 302Q410 352 381 387T297 422Q190 422 183 290L182 260L183 230Q190 98 297 98Q354 98 381 134Z" />
<glyph unicode="e" glyph-name="e" horiz-adv-x="578" d="M179 -10T114 54T44 236L43 261Q43 386 108 458T290 530Q409 530 473 458T538 266V245Q538 235 531 228T513 221H181V213Q183 157 211 121T290 84Q347 84 383 130Q392 141 397 143T414 146H502Q511 146
517 141T524 127Q524 103 496 71T414 14T291 -10Q179 -10 114 54ZM400 306V308Q400 367 371 402T290 438Q239 438 210 403T181 308V306H400Z" />
<glyph unicode="f" glyph-name="f" horiz-adv-x="415" d="M136 0T129 7T122 24V413H41Q31 413 24 420T17 437V496Q17 506 24 513T41 520H122V560Q122 651 171 695T319 740H388Q398 740 405 733T412 716V657Q412 647 405 640T388 633H324Q285 633 269 614T253 555V520H378Q388
520 395 513T402 496V437Q402 427 395 420T378 413H253V24Q253 14 247 7T229 0H146Q136 0 129 7Z" />
<glyph unicode="g" glyph-name="g" horiz-adv-x="616" d="M212 -220T157 -191T79 -123T56 -58Q56 -48 63 -42T80 -35H169Q178 -35 184 -39T195 -56Q206 -82 228 -100T296 -119Q356 -119 384 -93T412 0V68Q358 4 259 4Q155 4 103 67T46 239L45 266L46 293Q50 400
103 465T259 530Q312 530 352 510T418 456V495Q418 506 425 513T443 520H525Q535 520 542 513T549 495L550 13Q550 -98 488 -159T301 -220Q212 -220 157 -191ZM353 110T381 146T412 234Q413 242 413 266Q413 290 412 298Q409 350 381 386T297 422Q189 422 183 290L182
266Q182 110 297 110Q353 110 381 146Z" />
<glyph unicode="h" glyph-name="h" horiz-adv-x="630" d="M81 0T74 7T67 24V686Q67 697 74 703T91 710H182Q193 710 199 704T206 686V458Q266 530 367 530Q459 530 514 470T569 305V24Q569 14 563 7T545 0H454Q443 0 436 7T429 24V299Q429 357 401 389T319 422Q268
422 237 389T206 299V24Q206 14 200 7T182 0H91Q81 0 74 7Z" />
<glyph unicode="i" glyph-name="i" horiz-adv-x="265" d="M76 605T69 612T62 629V702Q62 713 69 720T86 727H178Q189 727 196 720T203 702V629Q203 619 196 612T178 605H86Q76 605 69 612ZM80 0T73 7T66 24V496Q66 507 73 513T90 520H175Q185 520 192 513T199
496V24Q199 14 192 7T175 0H90Q80 0 73 7Z" />
<glyph unicode="j" glyph-name="j" horiz-adv-x="280" d="M86 605T79 612T72 629V702Q72 712 79 719T96 727H193Q203 727 210 720T217 702V629Q217 619 210 612T193 605H96Q86 605 79 612ZM-31 -190T-37 -184T-44 -166V-107Q-44 -97 -38 -90T-20 -83H6Q48 -83
62 -62T77 2V496Q77 507 84 513T101 520H189Q200 520 206 514T213 496V-1Q213 -91 164 -140T19 -190H-20Q-31 -190 -37 -184Z" />
<glyph unicode="k" glyph-name="k" horiz-adv-x="552" d="M81 0T74 7T67 24V686Q67 697 74 703T91 710H174Q184 710 191 703T198 686V344L364 503Q367 505 373 510T386 518T401 520H496Q506 520 512 514T518 498Q518 489 508 480L304 287L533 39Q542 30 542 22Q542
12 536 6T521 0H424Q410 0 404 3T387 17L198 218V24Q198 14 191 7T174 0H91Q81 0 74 7Z" />
<glyph unicode="l" glyph-name="l" horiz-adv-x="266" d="M81 0T74 7T67 24V686Q67 697 74 703T91 710H175Q186 710 192 704T199 686V24Q199 14 193 7T175 0H91Q81 0 74 7Z" />
<glyph unicode="m" glyph-name="m" horiz-adv-x="903" d="M80 0T73 7T66 24V496Q66 507 73 513T90 520H169Q180 520 186 514T193 496V462Q247 530 338 530Q449 530 493 441Q517 481 561 505T656 530Q738 530 790 474T842 311V24Q842 14 836 7T818 0H735Q725 0
718 7T711 24V303Q711 366 685 394T615 422Q576 422 549 394T521 303V24Q521 14 515 7T497 0H413Q403 0 396 7T389 24V303Q389 365 362 393T293 422Q254 422 227 394T199 303V24Q199 14 193 7T175 0H90Q80 0 73 7Z" />
<glyph unicode="n" glyph-name="n" horiz-adv-x="625" d="M80 0T73 7T66 24V496Q66 507 73 513T90 520H173Q184 520 190 514T197 496V455Q258 530 364 530Q456 530 510 470T564 305V24Q564 14 558 7T540 0H450Q440 0 433 7T426 24V299Q426 357 398 389T316 422Q265
422 234 389T203 299V24Q203 14 197 7T179 0H90Q80 0 73 7Z" />
<glyph unicode="o" glyph-name="o" horiz-adv-x="593" d="M179 -10T115 50T46 216L45 260L46 304Q51 409 116 469T297 530Q412 530 477 470T547 304Q548 292 548 260Q548 228 547 216Q542 110 478 50T297 -10Q179 -10 115 50ZM350 91T378 124T409 221Q410 231
410 260Q410 289 409 299Q407 363 378 396T297 430Q244 430 215 397T184 299L183 260L184 221Q186 157 215 124T297 91Q350 91 378 124Z" />
<glyph unicode="p" glyph-name="p" horiz-adv-x="614" d="M81 -190T74 -184T67 -166V496Q67 507 74 513T91 520H171Q182 520 189 513T196 496V456Q249 530 355 530Q456 530 510 467T568 296Q569 284 569 260Q569 236 568 224Q565 119 511 55T355 -10Q255 -10 202
61V-166Q202 -177 196 -183T178 -190H91Q81 -190 74 -184ZM424 98T431 230Q432 240 432 260Q432 280 431 290Q424 422 317 422Q260 422 232 385T202 295Q201 283 201 257Q201 231 202 218Q204 168 233 133T317 98Q424 98 431 230Z" />
<glyph unicode="q" glyph-name="q" horiz-adv-x="614" d="M427 -190T420 -184T413 -166V61Q360 -10 259 -10Q159 -10 105 54T46 224L45 260L46 296Q50 403 104 466T259 530Q364 530 419 456V496Q419 507 426 513T443 520H524Q535 520 541 514T548 496V-166Q548
-177 542 -183T524 -190H437Q427 -190 420 -184ZM352 98T381 133T413 218Q414 231 414 257Q414 283 413 295Q410 349 382 385T297 422Q191 422 184 290Q183 280 183 260Q183 240 184 230Q191 98 297 98Q352 98 381 133Z" />
<glyph unicode="r" glyph-name="r" horiz-adv-x="419" d="M80 0T73 7T66 24V495Q66 506 73 513T90 520H172Q183 520 190 513T197 495V454Q247 520 341 520H383Q394 520 400 514T407 496V423Q407 413 401 406T383 399H304Q257 399 230 372T203 298V24Q203 14 196
7T179 0H90Q80 0 73 7Z" />
<glyph unicode="s" glyph-name="s" horiz-adv-x="533" d="M188 -10T137 13T62 66T37 119Q37 129 43 135T59 141H141Q149 141 155 133Q160 129 177 114T217 91T267 82Q307 82 332 97T357 142Q357 162 346 174T305 197T216 221Q131 239 91 276T50 374Q50 414 74
449T145 507T259 530Q327 530 376 509T450 457T476 404Q476 395 470 389T454 382H379Q368 382 362 390Q355 395 340 408T305 430T259 438Q222 438 202 422T182 380Q182 362 191 350T230 328T317 306Q497 271 497 149Q497 78 436 34T264 -10Q188 -10 137 13Z" />
<glyph unicode="t" glyph-name="t" horiz-adv-x="431" d="M211 0T165 47T119 187V413H40Q30 413 23 420T16 437V496Q16 506 23 513T40 520H119V686Q119 697 126 703T143 710H226Q237 710 243 704T250 686V520H375Q385 520 392 513T399 496V437Q399 427 392 420T375
413H250V198Q250 155 265 133T314 111H384Q395 111 401 105T408 87V24Q408 14 402 7T384 0H302Q211 0 165 47Z" />
<glyph unicode="u" glyph-name="u" horiz-adv-x="622" d="M167 -10T114 50T61 215V496Q61 507 68 513T85 520H175Q185 520 192 513T199 496V221Q199 98 306 98Q358 98 388 131T419 221V496Q419 507 426 513T443 520H532Q543 520 549 514T556 496V24Q556 14 550
7T532 0H449Q439 0 432 7T425 24V65Q370 -10 259 -10Q167 -10 114 50Z" />
<glyph unicode="v" glyph-name="v" horiz-adv-x="575" d="M235 0T227 6T214 25L26 489Q25 492 25 498Q25 507 31 513T46 520H129Q149 520 156 501L288 152L420 501Q422 508 428 514T446 520H529Q538 520 544 514T550 498Q550 492 549 489L362 25Q351 0 326 0H250Q235
0 227 6Z" />
<glyph unicode="w" glyph-name="w" horiz-adv-x="821" d="M183 0T175 25L32 489Q31 492 31 498Q31 507 37 513T52 520H128Q138 520 145 514T155 501L252 172L355 498Q358 507 365 513T385 520H436Q448 520 455 514T465 498L569 172L666 501Q668 508 675 514T693
520H768Q777 520 783 514T790 498L788 489L645 25Q641 13 634 7T613 0H547Q521 0 514 25L411 339L307 25Q299 0 273 0H208Q183 0 175 25Z" />
<glyph unicode="x" glyph-name="x" horiz-adv-x="565" d="M35 0T29 6T22 22Q22 31 28 39L199 267L41 481Q35 489 35 498Q35 507 41 513T57 520H145Q156 520 161 516T173 503L285 354L396 503Q397 504 403 512T424 520H509Q518 520 524 514T530 499Q530 489 524
481L364 266L536 39Q542 31 542 22Q542 13 536 7T520 0H428Q412 0 401 16L281 174L160 16Q149 0 133 0H44Q35 0 29 6Z" />
<glyph unicode="y" glyph-name="y" horiz-adv-x="575" d="M152 -190T146 -184T139 -170Q139 -163 143 -154L222 31L30 484Q26 493 26 498Q27 507 33 513T48 520H131Q149 520 157 501L290 175L425 501Q435 520 453 520H534Q543 520 549 514T555 500Q555 493 551
484L268 -171Q260 -190 240 -190H160Q152 -190 146 -184Z" />
<glyph unicode="z" glyph-name="z" horiz-adv-x="532" d="M54 0T47 7T40 24V82Q40 91 43 98T54 115L309 414H72Q62 414 55 421T48 439V496Q48 506 55 513T72 520H453Q463 520 470 513T477 496V434Q477 426 473 418T463 403L213 106H473Q483 106 490 99T497 81V24Q497
14 491 7T473 0H64Q54 0 47 7Z" />
<glyph unicode="{" glyph-name="braceleft" horiz-adv-x="398" d="M228 -158T169 -85T110 131Q110 177 97 205T55 251L45 256Q31 263 25 272T19 295V323Q19 337 25 346T45 362L56 368Q85 385 97 413T110 487Q110 630 169 702T345 776H351Q360 776 366 770T373
754V689Q373 680 367 674T352 667H348Q303 664 278 644T243 583T233 470Q233 410 214 369T159 309Q194 292 213 250T233 148Q233 77 243 36T278 -26T347 -49H352Q361 -50 367 -56T373 -71V-137Q373 -146 367 -152T351 -159H346Q228 -158 169 -85Z" />
<glyph unicode="|" glyph-name="bar" horiz-adv-x="249" d="M82 -208T75 -202T68 -184V872Q68 883 75 889T92 896H158Q168 896 175 889T182 872V-184Q182 -194 175 -201T158 -208H92Q82 -208 75 -202Z" />
<glyph unicode="}" glyph-name="braceright" horiz-adv-x="398" d="M170 775T229 702T288 486Q288 440 301 412T343 367L353 362Q367 354 373 345T379 323V294Q379 281 373 272T353 255L342 250Q314 233 301 205T288 130Q288 -156 53 -159H47Q38 -159 32 -153T25
-137V-71Q25 -62 31 -56T46 -49H50Q95 -47 120 -27T155 34T165 147Q165 208 184 249T239 308Q204 326 185 368T165 470Q165 541 155 582T120 644T51 666L46 667Q38 667 32 673T25 689V754Q25 764 31 770T47 776H52Q170 775 229 702Z" />
<glyph unicode="~" glyph-name="asciitilde" horiz-adv-x="557" d="M66 227T66 252V310Q66 335 98 355T176 376Q207 376 231 371T286 356Q315 347 336 343T383 338Q407 338 422 345T457 367Q465 372 473 373Q492 373 492 348V289Q492 264 460 244T382 224Q353
224 331 228T275 243Q247 252 225 257T175 262Q151 262 136 255T101 233Q91 227 85 227Q66 227 66 252Z" />
<glyph unicode="&#xa0;" glyph-name="uni00A0" horiz-adv-x="228" />
<glyph unicode="&#xa1;" glyph-name="exclamdown" horiz-adv-x="262" d="M190 518T196 512T203 494V399Q203 389 197 382T179 375H85Q74 375 67 382T60 399V494Q60 504 67 511T85 518H179Q190 518 196 512ZM184 323T190 317T197 299V-158Q197 -169 191 -175T173
-182H90Q80 -182 73 -175T66 -158V299Q66 309 73 316T90 323H173Q184 323 190 317Z" />
<glyph unicode="&#xa2;" glyph-name="cent" horiz-adv-x="579" d="M243 -100T236 -94T229 -76V-3Q147 11 99 69T48 220L47 260L48 300Q51 392 99 450T229 523V586Q229 597 236 603T253 610H324Q335 610 341 604T348 586V524Q412 514 454 483T516 416T536 354Q536
345 529 339T512 332H423Q412 332 407 336T397 353Q382 391 356 408T291 425Q244 425 216 393T185 295L184 258L185 225Q188 159 216 127T291 95Q330 95 356 112T397 167Q401 178 406 183T423 188H512Q521 188 528 182T536 166Q536 140 517 104T455 37T348 -4V-76Q348
-87 342 -93T324 -100H253Q243 -100 236 -94Z" />
<glyph unicode="&#xa3;" glyph-name="sterling" horiz-adv-x="700" d="M436 -7T404 6T331 43Q297 63 277 71T233 80Q201 80 185 64T161 16Q159 9 155 5T142 0H65Q57 0 52 5T46 19Q48 83 78 125T159 184Q158 212 153 246T146 288H70Q60 288 53 295T46 312V368Q46
379 53 385T70 392H126Q123 419 123 452Q123 572 189 641T381 711Q461 711 520 682T612 601T646 482Q646 473 640 467T625 461H529Q507 461 499 485Q476 595 381 595Q325 595 297 557T269 451Q269 410 271 392H442Q452 392 459 385T466 368V312Q466 302 459 295T442
288H279Q287 218 288 182Q313 177 331 168T376 142Q402 125 420 117T462 108Q497 108 515 126T544 178Q546 184 550 188T562 193H632Q641 193 646 188T651 174Q650 117 626 77T564 15T479 -7Q436 -7 404 6Z" />
<glyph unicode="&#xa4;" glyph-name="currency" horiz-adv-x="601" d="M65 102Q58 109 58 119Q58 130 65 136L109 180Q74 234 74 300Q74 364 109 420L65 464Q58 471 58 481Q58 491 65 498L103 536Q110 543 120 543Q130 543 137 536L181 491Q237 527 301 527Q364
527 420 491L465 536Q472 543 482 543Q492 543 498 536L537 498Q544 491 544 481Q544 471 537 464L492 420Q527 364 527 300Q527 234 492 180L537 136Q544 130 544 119Q544 109 537 102L498 64Q491 57 482 57Q474 57 465 64L420 109Q367 73 301 73Q234 73 181 109L137
64Q128 57 120 57Q112 57 103 64L65 102ZM353 175T389 211T426 300Q426 352 390 388T301 425Q249 425 213 389T176 300Q176 248 212 212T301 175Q353 175 389 211Z" />
<glyph unicode="&#xa5;" glyph-name="yen" horiz-adv-x="654" d="M624 677T621 668L436 332H533Q544 332 551 325T558 308V250Q558 240 551 233T533 226H398V191H533Q544 191 551 184T558 167V110Q558 100 551 93T533 85H398V24Q398 13 391 7T373 0H281Q270 0
263 7T256 24V85H121Q111 85 104 92T97 110V167Q97 177 104 184T121 191H256V226H121Q111 226 104 233T97 250V308Q97 318 104 325T121 332H218L34 668Q31 673 31 679Q31 688 37 694T51 700H143Q162 700 174 681L327 408L481 681Q493 700 512 700H603Q611 700 617
694T624 679Q624 677 621 668Z" />
<glyph unicode="&#xa6;" glyph-name="brokenbar" horiz-adv-x="255" d="M84 475T77 482T70 499V805Q70 815 77 822T94 829H160Q171 829 177 823T184 805V499Q184 489 178 482T160 475H94Q84 475 77 482ZM84 0T77 7T70 24V330Q70 340 77 347T94 354H160Q171 354
177 348T184 330V24Q184 14 178 7T160 0H94Q84 0 77 7Z" />
<glyph unicode="&#xa7;" glyph-name="section" horiz-adv-x="588" d="M218 -140T168 -118T92 -62T64 4V6Q64 15 70 20T86 25H165Q174 25 180 21T191 8Q201 -15 221 -29T285 -43Q325 -43 346 -23T367 29Q367 52 358 66T321 91T241 117Q166 138 122 164T58 226T38
315Q38 394 112 449Q90 479 90 530Q90 578 114 619T186 685T301 710Q370 710 420 688T495 632T523 567V565Q523 556 517 551T502 546H422Q413 546 407 550T396 564Q385 586 365 599T302 613Q262 613 242 593T221 541Q221 518 230 504T267 479T347 453Q422 432 466
406T530 344T550 255Q550 177 476 121Q498 91 498 40Q498 -8 474 -49T402 -115T287 -140Q218 -140 168 -118ZM404 198T416 213T428 250Q428 285 403 306T307 349Q245 368 209 383Q160 362 160 320Q160 297 169 281T205 250T282 220Q324 208 379 187Q404 198 416
213Z" />
<glyph unicode="&#xa8;" glyph-name="dieresis" horiz-adv-x="431" d="M74 614T68 620T62 636V710Q62 720 68 726T84 733H158Q168 733 174 727T181 710V636Q181 626 175 620T158 614H84Q74 614 68 620ZM263 614T257 620T251 636V710Q251 720 257 726T273 733H347Q357
733 363 727T370 710V636Q370 626 364 620T347 614H273Q263 614 257 620Z" />
<glyph unicode="&#xa9;" glyph-name="copyright" horiz-adv-x="817" d="M310 -10T228 38T97 169T48 350Q48 448 96 530T227 661T408 710Q506 710 588 662T719 531T768 350Q768 252 720 170T589 39T408 -10Q310 -10 228 38ZM486 62T551 101T654 206T692 350Q692
428 654 494T551 599T408 638Q331 638 266 599T163 494T125 350Q125 272 163 206T266 101T408 62Q486 62 551 101ZM333 158T289 202T241 315L240 351L241 387Q244 456 288 500T408 544Q462 544 500 527T556 482T576 428V426Q576 417 570 412T554 406H504Q494 406
489 411T480 426Q472 447 455 456T408 466Q339 466 334 385L333 351L334 317Q339 236 408 236Q438 236 455 245T480 276Q484 286 489 291T504 296H554Q564 296 570 290T576 274Q575 247 557 220T500 176T408 158Q333 158 289 202Z" />
<glyph unicode="&#xaa;" glyph-name="ordfeminine" horiz-adv-x="360" d="M96 429T70 451T43 507Q43 545 73 568T156 600L215 609Q215 623 209 632T179 641Q160 641 145 630Q142 629 137 626T124 623H78Q71 623 66 626T61 636Q61 648 75 664T117 693T182 705Q239
705 270 676T302 596V453Q302 445 297 440T283 434H236Q228 434 223 439T217 453V463Q208 448 186 439T139 429Q96 429 70 451ZM188 492T201 508T215 553L176 546Q148 541 138 533T127 512Q127 503 136 498T159 492Q188 492 201 508Z" />
<glyph unicode="&#xab;" glyph-name="guillemotleft" horiz-adv-x="615" d="M263 75T252 84L52 279Q38 292 36 311V347Q38 366 52 380L252 574Q263 583 272 583Q281 583 287 577T293 562V493Q293 479 289 471T275 453L147 329L275 205Q285 195 289 187T293 165V96Q293
87 287 81T272 75Q263 75 252 84ZM529 75T518 84L318 279Q304 292 302 311V347Q304 366 318 380L518 574Q529 583 538 583Q547 583 553 577T559 562V493Q559 479 555 471T541 453L413 329L541 205Q551 195 555 187T559 165V96Q559 87 553 81T538 75Q529 75 518
84Z" />
<glyph unicode="&#xac;" glyph-name="logicalnot" horiz-adv-x="574" d="M415 121T408 128T401 145V245H86Q76 245 69 252T62 269V326Q62 337 69 343T86 350H483Q494 350 501 343T508 326V145Q508 135 501 128T483 121H425Q415 121 408 128Z" />
<glyph unicode="&#xad;" glyph-name="uni00AD" horiz-adv-x="250" />
<glyph unicode="&#xae;" glyph-name="registered" horiz-adv-x="817" d="M310 -10T228 38T97 169T48 350Q48 448 96 530T227 661T408 710Q506 710 588 662T719 531T768 350Q768 252 720 170T589 39T408 -10Q310 -10 228 38ZM486 62T551 101T654 206T692 350Q692
428 654 494T551 599T408 638Q331 638 266 599T163 494T125 350Q125 272 163 206T266 101T408 62Q486 62 551 101ZM278 168T272 174T266 190V512Q266 522 272 528T288 534H423Q486 534 527 505T569 414Q569 376 552 350T504 311L563 204Q567 198 567 190Q567 181
562 175T545 168H501Q483 168 472 187L417 294H356V190Q356 180 350 174T334 168H288Q278 168 272 174ZM422 369Q477 369 477 414Q477 434 464 447T422 460H356V369H422Z" />
<glyph unicode="&#xaf;" glyph-name="overscore" horiz-adv-x="421" d="M74 611T68 617T62 633V685Q62 695 68 701T84 707H336Q346 707 352 701T359 685V633Q359 623 353 617T336 611H84Q74 611 68 617Z" />
<glyph unicode="&#xb0;" glyph-name="degree" horiz-adv-x="400" d="M156 398T119 418T61 474T39 554Q39 598 60 633T119 689T200 710Q244 710 281 690T339 634T361 554Q361 510 340 475T281 419T200 398Q156 398 119 418ZM234 478T255 499T276 554Q276 588 255
609T200 630Q166 630 145 609T124 554Q124 520 145 499T200 478Q234 478 255 499Z" />
<glyph unicode="&#xb1;" glyph-name="plusminus" horiz-adv-x="564" d="M242 190T235 197T228 214V365H81Q70 365 63 372T56 389V443Q56 453 63 460T81 467H228V613Q228 623 235 630T252 637H313Q324 637 330 631T337 613V467H484Q495 467 501 461T508 443V389Q508
379 502 372T484 365H337V214Q337 204 331 197T313 190H252Q242 190 235 197ZM81 0T74 7T67 24V78Q67 89 74 95T91 102H474Q485 102 491 96T498 78V24Q498 14 492 7T474 0H91Q81 0 74 7Z" />
<glyph unicode="&#xb2;" glyph-name="uni00B2" horiz-adv-x="349" d="M40 350T34 356T28 372V400Q28 408 33 415T52 434L102 470Q172 521 195 543T218 591Q218 609 206 620T172 632Q148 632 139 623T122 599Q116 588 111 585T98 581H54Q36 581 36 598Q36 627 54
651T104 690T172 705Q233 705 269 674T306 594Q306 547 276 513T167 426H299Q309 426 315 420T321 404V372Q321 362 315 356T299 350H50Q40 350 34 356Z" />
<glyph unicode="&#xb3;" glyph-name="uni00B3" horiz-adv-x="348" d="M99 345T63 371T24 432V434Q24 441 30 446T41 451H74Q88 451 104 443Q109 440 116 434T134 423T166 419Q192 419 208 429T225 457Q225 477 211 485T170 493H126Q117 493 111 499T105 515V537Q105
548 116 559L185 622H63Q53 622 47 628T41 644V678Q41 688 47 694T63 700H278Q288 700 294 694T300 678V648Q300 637 297 631T285 616L218 560Q266 554 291 527T317 456Q317 405 277 375T169 345Q99 345 63 371Z" />
<glyph unicode="&#xb4;" glyph-name="acute" horiz-adv-x="369" d="M62 595T62 611Q62 619 67 624L149 723Q158 734 165 738T186 742H287Q296 742 301 737T306 722Q306 715 301 710L176 608Q167 601 160 598T141 595H78Q62 595 62 611Z" />
<glyph unicode="&#xb5;" glyph-name="uni00B5" horiz-adv-x="633" d="M81 -200T74 -193T66 -176V496Q66 506 73 513T91 520H182Q193 520 199 514T206 496V221Q206 166 239 132T318 98Q363 98 396 132T430 221V496Q430 507 437 513T454 520H543Q554 520 560 514T567
496V24Q567 14 561 7T543 0H460Q450 0 443 7T436 24V65Q414 35 384 18T309 1Q277 1 253 11T206 40V-176Q206 -186 199 -193T182 -200H91Q81 -200 74 -193Z" />
<glyph unicode="&#xb6;" glyph-name="paragraph" horiz-adv-x="582" d="M228 -100T221 -94T214 -76V329Q163 329 121 354T53 421T28 515Q28 565 53 607T120 675T214 700H486Q496 700 503 693T510 676V-76Q510 -86 503 -93T486 -100H425Q415 -100 408 -94T401 -76V604H322V-76Q322
-87 316 -93T298 -100H238Q228 -100 221 -94Z" />
<glyph unicode="&#xb7;" glyph-name="middot" horiz-adv-x="330" d="M117 204T83 238T48 321Q48 369 82 403T165 438Q213 438 247 404T282 321Q282 273 248 239T165 204Q117 204 83 238Z" />
<glyph unicode="&#xb8;" glyph-name="cedilla" horiz-adv-x="304" d="M114 -220T88 -206T62 -178Q62 -174 67 -169L83 -154Q88 -149 93 -149Q98 -149 113 -157T146 -166Q162 -166 172 -157T183 -132Q183 -118 173 -109T146 -100Q136 -100 122 -104T102 -109Q95
-109 89 -103L71 -84Q67 -79 67 -73Q67 -65 73 -53L108 27H170L130 -53Q141 -46 164 -46Q199 -46 221 -69T243 -131Q243 -169 218 -194T148 -220Q114 -220 88 -206Z" />
<glyph unicode="&#xb9;" glyph-name="uni00B9" horiz-adv-x="259" d="M136 350T130 356T124 372V594L69 553Q64 549 56 549Q46 549 38 558L18 584Q13 591 13 598Q13 608 22 615L125 693Q135 700 148 700H193Q203 700 209 694T215 678V372Q215 362 209 356T193
350H146Q136 350 130 356Z" />
<glyph unicode="&#xba;" glyph-name="ordmasculine" horiz-adv-x="356" d="M117 429T83 457T46 540L45 567L46 594Q49 648 85 676T179 705Q237 705 272 677T311 594Q312 589 312 567Q312 545 311 540Q308 486 274 458T179 429Q117 429 83 457ZM200 497T210 508T222
545Q224 555 224 567Q224 579 222 589Q220 637 179 637Q137 637 135 589L134 567L135 545Q136 520 146 509T179 497Q200 497 210 508Z" />
<glyph unicode="&#xbb;" glyph-name="guillemotright" horiz-adv-x="615" d="M68 75T62 81T56 96V165Q56 179 60 187T74 205L202 329L74 453Q64 463 60 471T56 493V562Q56 571 62 577T77 583Q86 583 97 574L297 380Q311 366 313 347V311Q311 292 297 279L97 84Q87
75 77 75Q68 75 62 81ZM334 75T328 81T322 96V165Q322 179 326 187T340 205L468 329L340 453Q330 463 326 471T322 493V562Q322 571 328 577T343 583Q353 583 363 574L563 380Q577 366 579 347V311Q577 292 563 279L363 84Q353 75 343 75Q334 75 328 81Z" />
<glyph unicode="&#xbc;" glyph-name="onequarter" horiz-adv-x="746" d="M136 350T130 356T124 372V594L69 553Q64 549 56 549Q46 549 38 558L18 584Q13 591 13 598Q13 608 22 615L125 693Q135 700 148 700H193Q203 700 209 694T215 678V372Q215 362 209 356T193
350H146Q136 350 130 356ZM53 0T48 5T42 20Q42 26 46 31L539 681Q547 691 554 695T573 700H614Q624 700 630 695T636 680Q636 674 632 669L138 19Q130 9 123 5T104 0H63Q53 0 48 5ZM569 -1T563 5T557 21V62H409Q399 62 393 68T387 84V120Q387 134 399 150L532 331Q545
349 562 349H623Q633 349 639 343T645 327V141H680Q690 141 696 135T702 119V84Q702 74 696 68T680 62H645V21Q645 11 639 5T623 -1H579Q569 -1 563 5ZM482 139H559V248L482 139Z" />
<glyph unicode="&#xbd;" glyph-name="onehalf" horiz-adv-x="751" d="M136 350T130 356T124 372V594L69 553Q64 549 56 549Q46 549 38 558L18 584Q13 591 13 598Q13 608 22 615L125 693Q135 700 148 700H193Q203 700 209 694T215 678V372Q215 362 209 356T193
350H146Q136 350 130 356ZM53 0T48 5T42 20Q42 26 46 31L539 681Q547 691 554 695T573 700H614Q624 700 630 695T636 680Q636 674 632 669L138 19Q130 9 123 5T104 0H63Q53 0 48 5ZM422 0T416 6T410 22V50Q410 58 415 65T434 84L484 120Q554 171 577 193T600 241Q600
259 588 270T554 282Q530 282 521 273T504 249Q498 238 493 235T480 231H436Q418 231 418 248Q418 277 436 301T486 340T554 355Q615 355 651 324T688 244Q688 197 658 163T549 76H681Q691 76 697 70T703 54V22Q703 12 697 6T681 0H432Q422 0 416 6Z" />
<glyph unicode="&#xbe;" glyph-name="threequarters" horiz-adv-x="819" d="M99 345T63 371T24 432V434Q24 441 30 446T41 451H74Q88 451 104 443Q109 440 116 434T134 423T166 419Q192 419 208 429T225 457Q225 477 211 485T170 493H126Q117 493 111 499T105
515V537Q105 548 116 559L185 622H63Q53 622 47 628T41 644V678Q41 688 47 694T63 700H278Q288 700 294 694T300 678V648Q300 637 297 631T285 616L218 560Q266 554 291 527T317 456Q317 405 277 375T169 345Q99 345 63 371ZM142 0T137 5T131 20Q131 26 135 31L628
681Q636 691 643 695T662 700H703Q713 700 719 695T725 680Q725 674 721 669L227 19Q219 9 212 5T193 0H152Q142 0 137 5ZM661 -2T655 4T649 20V61H501Q491 61 485 67T479 83V119Q479 133 491 149L624 330Q637 348 654 348H715Q725 348 731 342T737 326V140H772Q782
140 788 134T794 118V83Q794 73 788 67T772 61H737V20Q737 10 731 4T715 -2H671Q661 -2 655 4ZM574 138H651V247L574 138Z" />
<glyph unicode="&#xbf;" glyph-name="questiondown" horiz-adv-x="560" d="M338 519T345 512T352 495V406Q352 396 345 389T328 382H229Q219 382 212 389T204 406V495Q204 505 211 512T229 519H328Q338 519 345 512ZM334 330T340 324T346 310Q346 289 345 278Q340
231 315 195T246 115Q212 81 196 59T177 13Q173 -28 203 -52T277 -76Q374 -76 394 21Q401 44 423 44H510Q520 44 526 37T533 19Q531 -36 500 -84T409 -161T270 -191Q187 -191 134 -165T56 -97T31 -12Q31 38 53 75T120 160Q152 194 169 218T193 271Q197 296 198
305Q203 318 209 324T226 330H325Q334 330 340 324Z" />
<glyph unicode="&#xc0;" glyph-name="Agrave" horiz-adv-x="694" d="M26 0T20 6T14 21L16 30L256 675Q266 700 292 700H402Q428 700 438 675L678 30L680 21Q680 12 674 6T659 0H570Q549 0 541 19L495 140H199L153 19Q145 0 124 0H35Q26 0 20 6ZM234 256H460L347
564L234 256ZM316 750T309 753T292 763L167 865Q162 870 162 877Q162 886 167 891T181 897H290Q303 897 310 893T327 878L408 779Q413 774 413 766Q413 750 397 750H327Q316 750 309 753Z" />
<glyph unicode="&#xc1;" glyph-name="Aacute" horiz-adv-x="694" d="M26 0T20 6T14 21L16 30L256 675Q266 700 292 700H402Q428 700 438 675L678 30L680 21Q680 12 674 6T659 0H570Q549 0 541 19L495 140H199L153 19Q145 0 124 0H35Q26 0 20 6ZM234 256H460L347
564L234 256ZM285 750T285 766Q285 774 290 779L372 878Q381 889 388 893T409 897H517Q526 897 531 892T536 877Q536 870 531 865L406 763Q397 756 390 753T371 750H301Q285 750 285 766Z" />
<glyph unicode="&#xc2;" glyph-name="Acircumflex" horiz-adv-x="694" d="M26 0T20 6T14 21L16 30L256 675Q266 700 292 700H402Q428 700 438 675L678 30L680 21Q680 12 674 6T659 0H570Q549 0 541 19L495 140H199L153 19Q145 0 124 0H35Q26 0 20 6ZM234 256H460L347
564L234 256ZM176 750T176 763Q176 771 185 780L283 881Q292 891 299 894T317 897H377Q387 897 394 894T411 881L508 780Q517 771 517 763Q517 750 503 750H463Q445 750 432 757L347 810L262 757Q249 750 231 750H191Q176 750 176 763Z" />
<glyph unicode="&#xc3;" glyph-name="Atilde" horiz-adv-x="694" d="M26 0T20 6T14 21L16 30L256 675Q266 700 292 700H402Q428 700 438 675L678 30L680 21Q680 12 674 6T659 0H570Q549 0 541 19L495 140H199L153 19Q145 0 124 0H35Q26 0 20 6ZM234 256H460L347
564L234 256ZM384 745T371 750T338 765Q324 773 316 776T297 780Q288 780 283 777T272 764Q264 750 253 750H206Q199 750 194 755T189 767Q189 790 200 816T233 860T289 878Q308 878 321 873T354 858Q368 850 376 847T395 843Q404 843 409 847T420 859Q425 867
429 870T440 873H486Q494 873 499 868T504 856Q504 833 493 807T458 763T403 745Q384 745 371 750Z" />
<glyph unicode="&#xc4;" glyph-name="Adieresis" horiz-adv-x="694" d="M26 0T20 6T14 21L16 30L256 675Q266 700 292 700H402Q428 700 438 675L678 30L680 21Q680 12 674 6T659 0H570Q549 0 541 19L495 140H199L153 19Q145 0 124 0H35Q26 0 20 6ZM234 256H460L347
564L234 256ZM190 750T184 756T178 772V846Q178 856 184 862T200 869H274Q284 869 290 863T297 846V772Q297 762 291 756T274 750H200Q190 750 184 756ZM409 750T403 756T397 772V846Q397 856 403 862T419 869H493Q503 869 509 863T516 846V772Q516 762 510 756T493
750H419Q409 750 403 756Z" />
<glyph unicode="&#xc5;" glyph-name="Aring" horiz-adv-x="694" d="M26 0T20 6T14 21L16 30L256 675Q266 700 292 700H402Q428 700 438 675L678 30L680 21Q680 12 674 6T659 0H570Q549 0 541 19L495 140H199L153 19Q145 0 124 0H35Q26 0 20 6ZM234 256H460L347
564L234 256ZM310 740T285 763T259 823Q259 859 284 883T347 907Q384 907 409 883T435 823Q435 787 410 764T347 740Q310 740 285 763ZM360 793T368 801T377 823Q377 836 369 844T347 853Q334 853 326 845T317 823Q317 810 325 802T347 793Q360 793 368 801Z" />
<glyph unicode="&#xc6;" glyph-name="AE" horiz-adv-x="955" d="M17 0T11 6T5 21Q5 24 7 32Q37 118 95 243T314 675Q324 700 348 700H875Q886 700 893 693T900 675V608Q900 597 893 591T875 584H559V409H853Q864 409 871 402T878 384V321Q878 310 871 304T853
297H559V116H883Q894 116 901 110T908 92V24Q908 13 901 7T883 0H446Q436 0 429 7T422 24V140H208Q151 37 145 19Q136 0 116 0H25Q17 0 11 6ZM249 256H422V580H409L249 256Z" />
<glyph unicode="&#xc7;" glyph-name="Ccedilla" horiz-adv-x="685" d="M312 -220T286 -206T260 -178Q260 -173 264 -169L281 -154Q286 -149 291 -149Q295 -149 310 -157T344 -166Q360 -166 370 -157T381 -132Q381 -118 371 -109T344 -100Q334 -100 320 -104T300
-109Q292 -109 286 -103L268 -84Q264 -79 264 -73Q264 -65 270 -53L290 -6Q179 8 119 77T54 261Q53 288 53 349Q53 411 54 439Q59 567 135 638T348 710Q437 710 503 680T605 596T644 477V475Q644 467 638 462T623 456H526Q514 456 508 461T498 481Q483 543 446
568T348 594Q205 594 199 434Q198 407 198 351Q198 295 199 266Q205 106 348 106Q408 106 445 131T498 219Q502 233 508 238T526 244H623Q632 244 638 238T644 223Q642 157 606 104T503 21T348 -10L327 -53Q338 -46 362 -46Q397 -46 418 -69T440 -131Q440 -169
415 -194T346 -220Q312 -220 286 -206Z" />
<glyph unicode="&#xc8;" glyph-name="Egrave" horiz-adv-x="623" d="M92 0T85 7T78 24V675Q78 686 84 693T102 700H543Q554 700 561 693T568 675V608Q568 597 561 591T543 584H215V409H521Q532 409 539 402T546 384V321Q546 310 539 304T521 297H215V116H551Q562
116 569 110T576 92V24Q576 13 569 7T551 0H102Q92 0 85 7ZM281 750T274 753T257 763L132 865Q127 870 127 877Q127 886 132 891T146 897H255Q268 897 275 893T292 878L373 779Q378 774 378 766Q378 750 362 750H292Q281 750 274 753Z" />
<glyph unicode="&#xc9;" glyph-name="Eacute" horiz-adv-x="623" d="M92 0T85 7T78 24V675Q78 686 84 693T102 700H543Q554 700 561 693T568 675V608Q568 597 561 591T543 584H215V409H521Q532 409 539 402T546 384V321Q546 310 539 304T521 297H215V116H551Q562
116 569 110T576 92V24Q576 13 569 7T551 0H102Q92 0 85 7ZM250 750T250 766Q250 774 255 779L337 878Q346 889 353 893T374 897H482Q491 897 496 892T501 877Q501 870 496 865L371 763Q362 756 355 753T336 750H266Q250 750 250 766Z" />
<glyph unicode="&#xca;" glyph-name="Ecircumflex" horiz-adv-x="623" d="M92 0T85 7T78 24V675Q78 686 84 693T102 700H543Q554 700 561 693T568 675V608Q568 597 561 591T543 584H215V409H521Q532 409 539 402T546 384V321Q546 310 539 304T521 297H215V116H551Q562
116 569 110T576 92V24Q576 13 569 7T551 0H102Q92 0 85 7ZM141 750T141 763Q141 771 150 780L248 881Q257 891 264 894T282 897H342Q352 897 359 894T376 881L473 780Q482 771 482 763Q482 750 468 750H428Q410 750 397 757L312 810L227 757Q214 750 196 750H156Q141
750 141 763Z" />
<glyph unicode="&#xcb;" glyph-name="Edieresis" horiz-adv-x="623" d="M92 0T85 7T78 24V675Q78 686 84 693T102 700H543Q554 700 561 693T568 675V608Q568 597 561 591T543 584H215V409H521Q532 409 539 402T546 384V321Q546 310 539 304T521 297H215V116H551Q562
116 569 110T576 92V24Q576 13 569 7T551 0H102Q92 0 85 7ZM155 750T149 756T143 772V846Q143 856 149 862T165 869H239Q249 869 255 863T262 846V772Q262 762 256 756T239 750H165Q155 750 149 756ZM374 750T368 756T362 772V846Q362 856 368 862T384 869H458Q468
869 474 863T481 846V772Q481 762 475 756T458 750H384Q374 750 368 756Z" />
<glyph unicode="&#xcc;" glyph-name="Igrave" horiz-adv-x="300" d="M92 0T85 7T78 24V676Q78 687 85 693T102 700H198Q209 700 215 694T222 676V24Q222 14 216 7T198 0H102Q92 0 85 7ZM119 750T112 753T95 763L-30 865Q-35 870 -35 877Q-35 886 -30 891T-16 897H93Q106
897 113 893T130 878L211 779Q216 774 216 766Q216 750 200 750H130Q119 750 112 753Z" />
<glyph unicode="&#xcd;" glyph-name="Iacute" horiz-adv-x="300" d="M92 0T85 7T78 24V676Q78 687 85 693T102 700H198Q209 700 215 694T222 676V24Q222 14 216 7T198 0H102Q92 0 85 7ZM88 750T88 766Q88 774 93 779L175 878Q184 889 191 893T212 897H320Q329
897 334 892T339 877Q339 870 334 865L209 763Q200 756 193 753T174 750H104Q88 750 88 766Z" />
<glyph unicode="&#xce;" glyph-name="Icircumflex" horiz-adv-x="300" d="M92 0T85 7T78 24V676Q78 687 85 693T102 700H198Q209 700 215 694T222 676V24Q222 14 216 7T198 0H102Q92 0 85 7ZM-21 750T-21 763Q-21 771 -12 780L86 881Q95 891 102 894T120 897H180Q190
897 197 894T214 881L311 780Q320 771 320 763Q320 750 306 750H266Q248 750 235 757L150 810L65 757Q52 750 34 750H-6Q-21 750 -21 763Z" />
<glyph unicode="&#xcf;" glyph-name="Idieresis" horiz-adv-x="300" d="M92 0T85 7T78 24V676Q78 687 85 693T102 700H198Q209 700 215 694T222 676V24Q222 14 216 7T198 0H102Q92 0 85 7ZM-7 750T-13 756T-19 772V846Q-19 856 -13 862T3 869H77Q87 869 93 863T100
846V772Q100 762 94 756T77 750H3Q-7 750 -13 756ZM212 750T206 756T200 772V846Q200 856 206 862T222 869H296Q306 869 312 863T319 846V772Q319 762 313 756T296 750H222Q212 750 206 756Z" />
<glyph unicode="&#xd0;" glyph-name="Eth" horiz-adv-x="718" d="M105 0T98 7T91 24V302H39Q29 302 22 309T15 326V378Q15 388 22 395T39 402H91V675Q91 686 98 693T115 700H360Q509 700 584 631T661 428Q662 400 662 351Q662 301 661 273Q660 134 587 67T363
0H115Q105 0 98 7ZM360 116Q443 116 479 153T516 276Q517 304 517 351Q517 397 516 425Q515 508 478 546T357 584H232V402H343Q353 402 360 395T367 378V326Q367 316 361 309T343 302H232V116H360Z" />
<glyph unicode="&#xd1;" glyph-name="Ntilde" horiz-adv-x="707" d="M92 0T85 7T78 24V675Q78 686 84 693T102 700H180Q199 700 209 683L495 239V675Q495 686 501 693T519 700H605Q616 700 623 693T630 675V25Q630 14 623 7T606 0H527Q507 0 497 17L212 451V24Q212
14 206 7T188 0H102Q92 0 85 7ZM391 745T378 750T345 765Q331 773 323 776T304 780Q295 780 290 777T279 764Q271 750 260 750H213Q206 750 201 755T196 767Q196 790 207 816T240 860T296 878Q315 878 328 873T361 858Q375 850 383 847T402 843Q411 843 416 847T427
859Q432 867 436 870T447 873H493Q501 873 506 868T511 856Q511 833 500 807T465 763T410 745Q391 745 378 750Z" />
<glyph unicode="&#xd2;" glyph-name="Ograve" horiz-adv-x="695" d="M211 -10T135 59T55 264Q54 293 54 349Q54 406 55 435Q59 568 137 639T348 710Q480 710 558 639T641 435Q643 377 643 349Q643 322 641 264Q637 128 561 59T348 -10Q211 -10 135 59ZM415 106T454
146T496 269Q498 329 498 350Q498 373 496 431Q493 513 453 553T348 594Q282 594 242 554T200 431Q199 402 199 350Q199 299 200 269Q202 187 241 147T348 106Q415 106 454 146ZM317 750T310 753T293 763L168 865Q163 870 163 877Q163 886 168 891T182 897H291Q304
897 311 893T328 878L409 779Q414 774 414 766Q414 750 398 750H328Q317 750 310 753Z" />
<glyph unicode="&#xd3;" glyph-name="Oacute" horiz-adv-x="695" d="M211 -10T135 59T55 264Q54 293 54 349Q54 406 55 435Q59 568 137 639T348 710Q480 710 558 639T641 435Q643 377 643 349Q643 322 641 264Q637 128 561 59T348 -10Q211 -10 135 59ZM415 106T454
146T496 269Q498 329 498 350Q498 373 496 431Q493 513 453 553T348 594Q282 594 242 554T200 431Q199 402 199 350Q199 299 200 269Q202 187 241 147T348 106Q415 106 454 146ZM286 750T286 766Q286 774 291 779L373 878Q382 889 389 893T410 897H518Q527 897
532 892T537 877Q537 870 532 865L407 763Q398 756 391 753T372 750H302Q286 750 286 766Z" />
<glyph unicode="&#xd4;" glyph-name="Ocircumflex" horiz-adv-x="695" d="M211 -10T135 59T55 264Q54 293 54 349Q54 406 55 435Q59 568 137 639T348 710Q480 710 558 639T641 435Q643 377 643 349Q643 322 641 264Q637 128 561 59T348 -10Q211 -10 135 59ZM415
106T454 146T496 269Q498 329 498 350Q498 373 496 431Q493 513 453 553T348 594Q282 594 242 554T200 431Q199 402 199 350Q199 299 200 269Q202 187 241 147T348 106Q415 106 454 146ZM177 750T177 763Q177 771 186 780L284 881Q293 891 300 894T318 897H378Q388
897 395 894T412 881L509 780Q518 771 518 763Q518 750 504 750H464Q446 750 433 757L348 810L263 757Q250 750 232 750H192Q177 750 177 763Z" />
<glyph unicode="&#xd5;" glyph-name="Otilde" horiz-adv-x="695" d="M211 -10T135 59T55 264Q54 293 54 349Q54 406 55 435Q59 568 137 639T348 710Q480 710 558 639T641 435Q643 377 643 349Q643 322 641 264Q637 128 561 59T348 -10Q211 -10 135 59ZM415 106T454
146T496 269Q498 329 498 350Q498 373 496 431Q493 513 453 553T348 594Q282 594 242 554T200 431Q199 402 199 350Q199 299 200 269Q202 187 241 147T348 106Q415 106 454 146ZM385 745T372 750T339 765Q325 773 317 776T298 780Q289 780 284 777T273 764Q265
750 254 750H207Q200 750 195 755T190 767Q190 790 201 816T234 860T290 878Q309 878 322 873T355 858Q369 850 377 847T396 843Q405 843 410 847T421 859Q426 867 430 870T441 873H487Q495 873 500 868T505 856Q505 833 494 807T459 763T404 745Q385 745 372 750Z"
/>
<glyph unicode="&#xd6;" glyph-name="Odieresis" horiz-adv-x="695" d="M211 -10T135 59T55 264Q54 293 54 349Q54 406 55 435Q59 568 137 639T348 710Q480 710 558 639T641 435Q643 377 643 349Q643 322 641 264Q637 128 561 59T348 -10Q211 -10 135 59ZM415
106T454 146T496 269Q498 329 498 350Q498 373 496 431Q493 513 453 553T348 594Q282 594 242 554T200 431Q199 402 199 350Q199 299 200 269Q202 187 241 147T348 106Q415 106 454 146ZM191 750T185 756T179 772V846Q179 856 185 862T201 869H275Q285 869 291
863T298 846V772Q298 762 292 756T275 750H201Q191 750 185 756ZM410 750T404 756T398 772V846Q398 856 404 862T420 869H494Q504 869 510 863T517 846V772Q517 762 511 756T494 750H420Q410 750 404 756Z" />
<glyph unicode="&#xd7;" glyph-name="multiply" horiz-adv-x="582" d="M60 159Q53 168 53 176Q53 184 60 193L200 332L60 473Q53 482 53 490Q53 498 60 507L117 564Q124 571 134 571Q144 571 151 564L291 423L431 563Q439 571 448 571Q457 571 465 563L522 506Q529
500 529 489Q529 479 522 472L382 332L522 193Q529 186 529 176Q529 166 522 159L465 102Q456 95 448 95Q440 95 431 102L291 242L151 102Q144 95 134 95Q124 95 117 102L60 159Z" />
<glyph unicode="&#xd8;" glyph-name="Oslash" horiz-adv-x="723" d="M246 -10T174 40T81 194L43 180Q35 177 31 177Q22 177 17 182T11 196V252Q11 264 16 270T33 281L69 294L68 352Q68 377 70 435Q74 568 152 639T363 710Q471 710 543 661T641 518L680 533Q688
536 692 536Q701 536 706 531T712 517V460Q712 448 707 443T690 432L657 420L658 354Q658 324 656 264Q652 128 576 59T363 -10Q246 -10 174 40ZM507 465Q498 530 460 562T363 594Q297 594 258 554T215 431Q213 375 214 352L507 465ZM430 106T469 146T511 269Q513
335 512 363L216 247Q224 175 262 141T363 106Q430 106 469 146Z" />
<glyph unicode="&#xd9;" glyph-name="Ugrave" horiz-adv-x="714" d="M222 -10T147 59T72 268V675Q72 686 78 693T96 700H188Q199 700 206 693T213 675V268Q213 189 250 149T357 109Q426 109 463 149T501 268V675Q501 686 508 693T526 700H618Q629 700 635 693T642
675V268Q642 128 568 59T358 -10Q222 -10 147 59ZM326 750T319 753T302 763L177 865Q172 870 172 877Q172 886 177 891T191 897H300Q313 897 320 893T337 878L418 779Q423 774 423 766Q423 750 407 750H337Q326 750 319 753Z" />
<glyph unicode="&#xda;" glyph-name="Uacute" horiz-adv-x="714" d="M222 -10T147 59T72 268V675Q72 686 78 693T96 700H188Q199 700 206 693T213 675V268Q213 189 250 149T357 109Q426 109 463 149T501 268V675Q501 686 508 693T526 700H618Q629 700 635 693T642
675V268Q642 128 568 59T358 -10Q222 -10 147 59ZM295 750T295 766Q295 774 300 779L382 878Q391 889 398 893T419 897H527Q536 897 541 892T546 877Q546 870 541 865L416 763Q407 756 400 753T381 750H311Q295 750 295 766Z" />
<glyph unicode="&#xdb;" glyph-name="Ucircumflex" horiz-adv-x="714" d="M222 -10T147 59T72 268V675Q72 686 78 693T96 700H188Q199 700 206 693T213 675V268Q213 189 250 149T357 109Q426 109 463 149T501 268V675Q501 686 508 693T526 700H618Q629 700 635
693T642 675V268Q642 128 568 59T358 -10Q222 -10 147 59ZM186 750T186 763Q186 771 195 780L293 881Q302 891 309 894T327 897H387Q397 897 404 894T421 881L518 780Q527 771 527 763Q527 750 513 750H473Q455 750 442 757L357 810L272 757Q259 750 241 750H201Q186
750 186 763Z" />
<glyph unicode="&#xdc;" glyph-name="Udieresis" horiz-adv-x="714" d="M222 -10T147 59T72 268V675Q72 686 78 693T96 700H188Q199 700 206 693T213 675V268Q213 189 250 149T357 109Q426 109 463 149T501 268V675Q501 686 508 693T526 700H618Q629 700 635 693T642
675V268Q642 128 568 59T358 -10Q222 -10 147 59ZM200 750T194 756T188 772V846Q188 856 194 862T210 869H284Q294 869 300 863T307 846V772Q307 762 301 756T284 750H210Q200 750 194 756ZM419 750T413 756T407 772V846Q407 856 413 862T429 869H503Q513 869 519
863T526 846V772Q526 762 520 756T503 750H429Q419 750 413 756Z" />
<glyph unicode="&#xdd;" glyph-name="Yacute" horiz-adv-x="665" d="M276 0T269 7T262 24V249L25 668Q22 677 22 679Q22 688 28 694T43 700H133Q152 700 164 681L332 391L501 681Q505 688 512 694T531 700H621Q630 700 636 694T642 679Q642 673 639 668L403 249V24Q403
13 396 7T378 0H286Q276 0 269 7ZM270 750T270 766Q270 774 275 779L357 878Q366 889 373 893T394 897H502Q511 897 516 892T521 877Q521 870 516 865L391 763Q382 756 375 753T356 750H286Q270 750 270 766Z" />
<glyph unicode="&#xde;" glyph-name="Thorn" horiz-adv-x="663" d="M92 0T85 7T78 24V676Q78 687 85 693T102 700H199Q210 700 216 694T223 676V575H368Q490 575 559 519T629 353Q629 244 560 189T368 133H223V24Q223 13 216 7T198 0H102Q92 0 85 7ZM365 245Q422
245 453 272T484 353Q484 405 455 434T365 463H221V245H365Z" />
<glyph unicode="&#xdf;" glyph-name="germandbls" horiz-adv-x="616" d="M81 0T74 7T67 24V481Q67 582 126 646T307 710Q388 710 441 683T520 611T545 517Q545 466 524 431T467 376Q574 336 574 208Q574 157 548 110T467 31T331 0H273Q261 0 254 6T246 24V80Q246
91 253 97T273 104H312Q370 104 403 134T436 212Q436 260 403 291T310 322H271Q259 322 253 328T246 346V395Q246 419 271 419H305Q359 420 387 444T416 512Q416 553 386 579T307 606Q257 606 228 575T199 481V24Q199 14 193 7T175 0H91Q81 0 74 7Z" />
<glyph unicode="&#xe0;" glyph-name="agrave" horiz-adv-x="572" d="M166 -10T124 10T57 66T32 143Q32 211 87 253T238 310L375 330V351Q375 394 353 416T283 438Q250 438 230 426T198 402T181 385Q177 373 166 373H88Q79 373 73 379T66 395Q67 420 90 451T163
506T284 530Q402 530 456 477T510 338V24Q510 14 504 7T486 0H403Q393 0 386 7T379 24V63Q357 31 317 11T217 -10Q166 -10 124 10ZM306 86T341 122T376 226V246L276 230Q161 212 161 153Q161 121 187 104T251 86Q306 86 341 122ZM255 595T248 598T231 608L106 710Q101
715 101 722Q101 731 106 736T120 742H221Q234 742 241 738T258 723L340 624Q345 619 345 611Q345 595 329 595H266Q255 595 248 598Z" />
<glyph unicode="&#xe1;" glyph-name="aacute" horiz-adv-x="572" d="M166 -10T124 10T57 66T32 143Q32 211 87 253T238 310L375 330V351Q375 394 353 416T283 438Q250 438 230 426T198 402T181 385Q177 373 166 373H88Q79 373 73 379T66 395Q67 420 90 451T163
506T284 530Q402 530 456 477T510 338V24Q510 14 504 7T486 0H403Q393 0 386 7T379 24V63Q357 31 317 11T217 -10Q166 -10 124 10ZM306 86T341 122T376 226V246L276 230Q161 212 161 153Q161 121 187 104T251 86Q306 86 341 122ZM214 595T214 611Q214 619 219 624L301
723Q310 734 317 738T338 742H439Q448 742 453 737T458 722Q458 715 453 710L328 608Q319 601 312 598T293 595H230Q214 595 214 611Z" />
<glyph unicode="&#xe2;" glyph-name="acircumflex" horiz-adv-x="572" d="M166 -10T124 10T57 66T32 143Q32 211 87 253T238 310L375 330V351Q375 394 353 416T283 438Q250 438 230 426T198 402T181 385Q177 373 166 373H88Q79 373 73 379T66 395Q67 420 90 451T163
506T284 530Q402 530 456 477T510 338V24Q510 14 504 7T486 0H403Q393 0 386 7T379 24V63Q357 31 317 11T217 -10Q166 -10 124 10ZM306 86T341 122T376 226V246L276 230Q161 212 161 153Q161 121 187 104T251 86Q306 86 341 122ZM112 595T112 608Q112 616 121 625L218
726Q228 736 235 739T252 742H308Q318 742 325 739T342 726L440 625Q449 616 449 608Q449 595 434 595H396Q378 595 365 602L280 655L195 602Q182 595 164 595H127Q112 595 112 608Z" />
<glyph unicode="&#xe3;" glyph-name="atilde" horiz-adv-x="572" d="M166 -10T124 10T57 66T32 143Q32 211 87 253T238 310L375 330V351Q375 394 353 416T283 438Q250 438 230 426T198 402T181 385Q177 373 166 373H88Q79 373 73 379T66 395Q67 420 90 451T163
506T284 530Q402 530 456 477T510 338V24Q510 14 504 7T486 0H403Q393 0 386 7T379 24V63Q357 31 317 11T217 -10Q166 -10 124 10ZM306 86T341 122T376 226V246L276 230Q161 212 161 153Q161 121 187 104T251 86Q306 86 341 122ZM318 590T305 595T274 610Q261 618
253 621T235 625Q226 625 221 621T210 609Q202 595 191 595H144Q137 595 132 600T127 612Q127 635 137 660T170 702T225 720Q244 720 257 715T288 700Q301 692 309 689T327 685Q336 685 341 689T352 701Q357 708 361 711T372 715H418Q426 715 431 710T436 698Q436
675 425 650T392 608T337 590Q318 590 305 595Z" />
<glyph unicode="&#xe4;" glyph-name="adieresis" horiz-adv-x="572" d="M166 -10T124 10T57 66T32 143Q32 211 87 253T238 310L375 330V351Q375 394 353 416T283 438Q250 438 230 426T198 402T181 385Q177 373 166 373H88Q79 373 73 379T66 395Q67 420 90 451T163
506T284 530Q402 530 456 477T510 338V24Q510 14 504 7T486 0H403Q393 0 386 7T379 24V63Q357 31 317 11T217 -10Q166 -10 124 10ZM306 86T341 122T376 226V246L276 230Q161 212 161 153Q161 121 187 104T251 86Q306 86 341 122ZM142 614T136 620T130 636V710Q130
720 136 726T152 733H226Q236 733 242 727T249 710V636Q249 626 243 620T226 614H152Q142 614 136 620ZM331 614T325 620T319 636V710Q319 720 325 726T341 733H415Q425 733 431 727T438 710V636Q438 626 432 620T415 614H341Q331 614 325 620Z" />
<glyph unicode="&#xe5;" glyph-name="aring" horiz-adv-x="572" d="M166 -10T124 10T57 66T32 143Q32 211 87 253T238 310L375 330V351Q375 394 353 416T283 438Q250 438 230 426T198 402T181 385Q177 373 166 373H88Q79 373 73 379T66 395Q67 420 90 451T163
506T284 530Q402 530 456 477T510 338V24Q510 14 504 7T486 0H403Q393 0 386 7T379 24V63Q357 31 317 11T217 -10Q166 -10 124 10ZM306 86T341 122T376 226V246L276 230Q161 212 161 153Q161 121 187 104T251 86Q306 86 341 122ZM243 590T218 613T192 673Q192 709
217 733T280 757Q317 757 342 733T368 673Q368 637 343 614T280 590Q243 590 218 613ZM293 643T301 651T310 673Q310 686 302 694T280 703Q267 703 259 695T250 673Q250 660 258 652T280 643Q293 643 301 651Z" />
<glyph unicode="&#xe6;" glyph-name="ae" horiz-adv-x="904" d="M168 -10T124 10T56 65T32 143Q32 211 87 254T239 312L375 331V351Q375 394 354 416T283 438Q250 438 230 426T198 402T181 385Q177 373 166 373H88Q79 373 73 379T66 395Q66 419 90 451T163 506T284
530Q407 530 453 463Q517 530 619 530Q708 530 762 491T840 393T863 266V245Q863 235 856 228T838 221H512V213Q514 148 544 116T618 84Q646 84 670 95T711 130Q719 140 725 143T742 146H828Q837 146 843 141T849 125Q849 103 822 71T743 14T619 -10Q492 -10 427
80Q361 -10 226 -10Q168 -10 124 10ZM725 306V310Q725 369 698 403T619 438Q575 438 545 405T512 310V306H725ZM307 86T342 122T377 226V246L277 230Q162 212 162 153Q162 121 188 104T252 86Q307 86 342 122Z" />
<glyph unicode="&#xe7;" glyph-name="ccedilla" horiz-adv-x="572" d="M258 -220T232 -206T206 -178Q206 -173 210 -169L227 -154Q232 -149 237 -149Q241 -149 256 -157T290 -166Q306 -166 316 -157T327 -132Q327 -118 317 -109T290 -100Q280 -100 266 -104T246
-109Q239 -109 233 -103L214 -84Q210 -79 210 -73Q210 -67 217 -53L237 -5Q150 9 100 67T46 220L45 260L46 300Q50 408 115 469T291 530Q370 530 424 502T505 434T534 356Q535 346 528 339T510 332H421Q410 332 405 336T395 353Q380 391 356 408T293 425Q242 425
214 393T183 295L182 258L183 225Q189 95 293 95Q332 95 356 111T395 167Q399 178 404 183T421 188H510Q520 188 527 181T534 164Q532 129 507 89T427 20T294 -10L273 -53Q284 -46 308 -46Q343 -46 364 -69T386 -131Q386 -169 361 -194T292 -220Q258 -220 232 -206Z"
/>
<glyph unicode="&#xe8;" glyph-name="egrave" horiz-adv-x="578" d="M179 -10T114 54T44 236L43 261Q43 386 108 458T290 530Q409 530 473 458T538 266V245Q538 235 531 228T513 221H181V213Q183 157 211 121T290 84Q347 84 383 130Q392 141 397 143T414 146H502Q511
146 517 141T524 127Q524 103 496 71T414 14T291 -10Q179 -10 114 54ZM400 306V308Q400 367 371 402T290 438Q239 438 210 403T181 308V306H400ZM262 595T255 598T238 608L113 710Q108 715 108 722Q108 731 113 736T127 742H228Q241 742 248 738T265 723L347 624Q352
619 352 611Q352 595 336 595H273Q262 595 255 598Z" />
<glyph unicode="&#xe9;" glyph-name="eacute" horiz-adv-x="578" d="M179 -10T114 54T44 236L43 261Q43 386 108 458T290 530Q409 530 473 458T538 266V245Q538 235 531 228T513 221H181V213Q183 157 211 121T290 84Q347 84 383 130Q392 141 397 143T414 146H502Q511
146 517 141T524 127Q524 103 496 71T414 14T291 -10Q179 -10 114 54ZM400 306V308Q400 367 371 402T290 438Q239 438 210 403T181 308V306H400ZM232 595T232 611Q232 619 237 624L319 723Q328 734 335 738T356 742H457Q466 742 471 737T476 722Q476 715 471 710L346
608Q337 601 330 598T311 595H248Q232 595 232 611Z" />
<glyph unicode="&#xea;" glyph-name="ecircumflex" horiz-adv-x="578" d="M179 -10T114 54T44 236L43 261Q43 386 108 458T290 530Q409 530 473 458T538 266V245Q538 235 531 228T513 221H181V213Q183 157 211 121T290 84Q347 84 383 130Q392 141 397 143T414
146H502Q511 146 517 141T524 127Q524 103 496 71T414 14T291 -10Q179 -10 114 54ZM400 306V308Q400 367 371 402T290 438Q239 438 210 403T181 308V306H400ZM122 595T122 608Q122 616 131 625L228 726Q238 736 245 739T262 742H318Q328 742 335 739T352 726L450
625Q459 616 459 608Q459 595 444 595H406Q388 595 375 602L290 655L205 602Q192 595 174 595H137Q122 595 122 608Z" />
<glyph unicode="&#xeb;" glyph-name="edieresis" horiz-adv-x="578" d="M179 -10T114 54T44 236L43 261Q43 386 108 458T290 530Q409 530 473 458T538 266V245Q538 235 531 228T513 221H181V213Q183 157 211 121T290 84Q347 84 383 130Q392 141 397 143T414 146H502Q511
146 517 141T524 127Q524 103 496 71T414 14T291 -10Q179 -10 114 54ZM400 306V308Q400 367 371 402T290 438Q239 438 210 403T181 308V306H400ZM149 614T143 620T137 636V710Q137 720 143 726T159 733H233Q243 733 249 727T256 710V636Q256 626 250 620T233 614H159Q149
614 143 620ZM338 614T332 620T326 636V710Q326 720 332 726T348 733H422Q432 733 438 727T445 710V636Q445 626 439 620T422 614H348Q338 614 332 620Z" />
<glyph unicode="&#xec;" glyph-name="igrave" horiz-adv-x="265" d="M80 0T73 7T66 24V496Q66 507 73 513T90 520H175Q185 520 192 513T199 496V24Q199 14 192 7T175 0H90Q80 0 73 7ZM358 595T351 598T334 608L209 710Q204 715 204 722Q204 731 209 736T223 742H324Q337
742 344 738T361 723L443 624Q448 619 448 611Q448 595 432 595H369Q358 595 351 598Z" />
<glyph unicode="&#xed;" glyph-name="iacute" horiz-adv-x="265" d="M80 0T73 7T66 24V496Q66 507 73 513T90 520H175Q185 520 192 513T199 496V24Q199 14 192 7T175 0H90Q80 0 73 7ZM73 595T73 611Q73 619 78 624L160 723Q169 734 176 738T197 742H298Q307 742
312 737T317 722Q317 715 312 710L187 608Q178 601 171 598T152 595H89Q73 595 73 611Z" />
<glyph unicode="&#xee;" glyph-name="icircumflex" horiz-adv-x="265" d="M80 0T73 7T66 24V496Q66 507 73 513T90 520H175Q185 520 192 513T199 496V24Q199 14 192 7T175 0H90Q80 0 73 7ZM220 595T220 608Q220 616 229 625L326 726Q336 736 343 739T360 742H416Q426
742 433 739T450 726L548 625Q557 616 557 608Q557 595 542 595H504Q486 595 473 602L388 655L303 602Q290 595 272 595H235Q220 595 220 608Z" />
<glyph unicode="&#xef;" glyph-name="idieresis" horiz-adv-x="265" d="M80 0T73 7T66 24V496Q66 507 73 513T90 520H175Q185 520 192 513T199 496V24Q199 14 192 7T175 0H90Q80 0 73 7ZM246 614T240 620T234 636V710Q234 720 240 726T256 733H330Q340 733 346
727T353 710V636Q353 626 347 620T330 614H256Q246 614 240 620ZM435 614T429 620T423 636V710Q423 720 429 726T445 733H519Q529 733 535 727T542 710V636Q542 626 536 620T519 614H445Q435 614 429 620Z" />
<glyph unicode="&#xf0;" glyph-name="eth" horiz-adv-x="587" d="M174 -10T108 54T42 231Q42 304 72 358T159 441T291 470Q340 470 374 447Q355 501 323 541L218 500Q210 497 206 497Q197 497 192 502T186 516V539Q186 551 191 557T208 568L275 594Q239 628 199
658Q183 670 183 679Q183 688 189 694T204 700H294Q321 700 337 687L354 672Q380 650 391 638L483 674Q491 677 495 677Q504 677 509 672T515 658V635Q515 623 510 618T493 607L440 586Q486 527 511 448T540 255V227Q537 117 472 54T291 -10Q174 -10 108 54ZM345
91T373 126T402 218V242Q401 300 374 335T291 370Q236 370 209 335T180 242V217Q182 160 209 126T291 91Q345 91 373 126Z" />
<glyph unicode="&#xf1;" glyph-name="ntilde" horiz-adv-x="625" d="M80 0T73 7T66 24V496Q66 507 73 513T90 520H173Q184 520 190 514T197 496V455Q258 530 364 530Q456 530 510 470T564 305V24Q564 14 558 7T540 0H450Q440 0 433 7T426 24V299Q426 357 398 389T316
422Q265 422 234 389T203 299V24Q203 14 197 7T179 0H90Q80 0 73 7ZM352 590T339 595T308 610Q295 618 287 621T269 625Q260 625 255 621T244 609Q236 595 225 595H178Q171 595 166 600T161 612Q161 635 171 660T204 702T259 720Q278 720 291 715T322 700Q335 692
343 689T361 685Q370 685 375 689T386 701Q391 708 395 711T406 715H452Q460 715 465 710T470 698Q470 675 459 650T426 608T371 590Q352 590 339 595Z" />
<glyph unicode="&#xf2;" glyph-name="ograve" horiz-adv-x="593" d="M179 -10T115 50T46 216L45 260L46 304Q51 409 116 469T297 530Q412 530 477 470T547 304Q548 292 548 260Q548 228 547 216Q542 110 478 50T297 -10Q179 -10 115 50ZM350 91T378 124T409 221Q410
231 410 260Q410 289 409 299Q407 363 378 396T297 430Q244 430 215 397T184 299L183 260L184 221Q186 157 215 124T297 91Q350 91 378 124ZM267 595T260 598T243 608L118 710Q113 715 113 722Q113 731 118 736T132 742H233Q246 742 253 738T270 723L352 624Q357
619 357 611Q357 595 341 595H278Q267 595 260 598Z" />
<glyph unicode="&#xf3;" glyph-name="oacute" horiz-adv-x="593" d="M179 -10T115 50T46 216L45 260L46 304Q51 409 116 469T297 530Q412 530 477 470T547 304Q548 292 548 260Q548 228 547 216Q542 110 478 50T297 -10Q179 -10 115 50ZM350 91T378 124T409 221Q410
231 410 260Q410 289 409 299Q407 363 378 396T297 430Q244 430 215 397T184 299L183 260L184 221Q186 157 215 124T297 91Q350 91 378 124ZM236 595T236 611Q236 619 241 624L323 723Q332 734 339 738T360 742H461Q470 742 475 737T480 722Q480 715 475 710L350
608Q341 601 334 598T315 595H252Q236 595 236 611Z" />
<glyph unicode="&#xf4;" glyph-name="ocircumflex" horiz-adv-x="593" d="M179 -10T115 50T46 216L45 260L46 304Q51 409 116 469T297 530Q412 530 477 470T547 304Q548 292 548 260Q548 228 547 216Q542 110 478 50T297 -10Q179 -10 115 50ZM350 91T378 124T409
221Q410 231 410 260Q410 289 409 299Q407 363 378 396T297 430Q244 430 215 397T184 299L183 260L184 221Q186 157 215 124T297 91Q350 91 378 124ZM128 595T128 608Q128 616 137 625L234 726Q244 736 251 739T268 742H324Q334 742 341 739T358 726L456 625Q465
616 465 608Q465 595 450 595H412Q394 595 381 602L296 655L211 602Q198 595 180 595H143Q128 595 128 608Z" />
<glyph unicode="&#xf5;" glyph-name="otilde" horiz-adv-x="593" d="M179 -10T115 50T46 216L45 260L46 304Q51 409 116 469T297 530Q412 530 477 470T547 304Q548 292 548 260Q548 228 547 216Q542 110 478 50T297 -10Q179 -10 115 50ZM350 91T378 124T409 221Q410
231 410 260Q410 289 409 299Q407 363 378 396T297 430Q244 430 215 397T184 299L183 260L184 221Q186 157 215 124T297 91Q350 91 378 124ZM334 590T321 595T290 610Q277 618 269 621T251 625Q242 625 237 621T226 609Q218 595 207 595H160Q153 595 148 600T143
612Q143 635 153 660T186 702T241 720Q260 720 273 715T304 700Q317 692 325 689T343 685Q352 685 357 689T368 701Q373 708 377 711T388 715H434Q442 715 447 710T452 698Q452 675 441 650T408 608T353 590Q334 590 321 595Z" />
<glyph unicode="&#xf6;" glyph-name="odieresis" horiz-adv-x="593" d="M179 -10T115 50T46 216L45 260L46 304Q51 409 116 469T297 530Q412 530 477 470T547 304Q548 292 548 260Q548 228 547 216Q542 110 478 50T297 -10Q179 -10 115 50ZM350 91T378 124T409
221Q410 231 410 260Q410 289 409 299Q407 363 378 396T297 430Q244 430 215 397T184 299L183 260L184 221Q186 157 215 124T297 91Q350 91 378 124ZM155 614T149 620T143 636V710Q143 720 149 726T165 733H239Q249 733 255 727T262 710V636Q262 626 256 620T239
614H165Q155 614 149 620ZM344 614T338 620T332 636V710Q332 720 338 726T354 733H428Q438 733 444 727T451 710V636Q451 626 445 620T428 614H354Q344 614 338 620Z" />
<glyph unicode="&#xf7;" glyph-name="divide" horiz-adv-x="545" d="M222 421T215 428T208 445V520Q208 531 215 538T232 545H312Q323 545 330 538T337 520V445Q337 435 330 428T312 421H232Q222 421 215 428ZM69 248T62 255T55 272V329Q55 340 62 346T79 353H466Q477
353 483 347T490 329V272Q490 262 483 255T466 248H79Q69 248 62 255ZM222 57T215 64T208 81V156Q208 167 215 174T232 181H312Q323 181 330 174T337 156V81Q337 71 330 64T312 57H232Q222 57 215 64Z" />
<glyph unicode="&#xf8;" glyph-name="oslash" horiz-adv-x="624" d="M221 -10T164 26T81 127L44 113Q36 110 32 110Q23 110 18 115T12 129V168Q12 180 17 186T34 197L63 208Q61 246 61 265L62 304Q67 404 130 467T313 530Q403 530 459 494T542 394L580 409Q588
412 592 412Q601 412 606 407T612 392V353Q612 341 607 336T590 325L562 314Q564 299 564 259Q564 228 563 216Q558 115 497 53T313 -10Q221 -10 164 26ZM420 346Q410 389 382 409T313 430Q263 430 233 400T200 307V261L420 346ZM420 91T426 218V261L205 175Q225
91 313 91Q420 91 426 218Z" />
<glyph unicode="&#xf9;" glyph-name="ugrave" horiz-adv-x="622" d="M167 -10T114 50T61 215V496Q61 507 68 513T85 520H175Q185 520 192 513T199 496V221Q199 98 306 98Q358 98 388 131T419 221V496Q419 507 426 513T443 520H532Q543 520 549 514T556 496V24Q556
14 550 7T532 0H449Q439 0 432 7T425 24V65Q370 -10 259 -10Q167 -10 114 50ZM278 595T271 598T254 608L129 710Q124 715 124 722Q124 731 129 736T143 742H244Q257 742 264 738T281 723L363 624Q368 619 368 611Q368 595 352 595H289Q278 595 271 598Z" />
<glyph unicode="&#xfa;" glyph-name="uacute" horiz-adv-x="622" d="M167 -10T114 50T61 215V496Q61 507 68 513T85 520H175Q185 520 192 513T199 496V221Q199 98 306 98Q358 98 388 131T419 221V496Q419 507 426 513T443 520H532Q543 520 549 514T556 496V24Q556
14 550 7T532 0H449Q439 0 432 7T425 24V65Q370 -10 259 -10Q167 -10 114 50ZM248 595T248 611Q248 619 253 624L335 723Q344 734 351 738T372 742H473Q482 742 487 737T492 722Q492 715 487 710L362 608Q353 601 346 598T327 595H264Q248 595 248 611Z" />
<glyph unicode="&#xfb;" glyph-name="ucircumflex" horiz-adv-x="622" d="M167 -10T114 50T61 215V496Q61 507 68 513T85 520H175Q185 520 192 513T199 496V221Q199 98 306 98Q358 98 388 131T419 221V496Q419 507 426 513T443 520H532Q543 520 549 514T556 496V24Q556
14 550 7T532 0H449Q439 0 432 7T425 24V65Q370 -10 259 -10Q167 -10 114 50ZM140 595T140 608Q140 616 149 625L246 726Q256 736 263 739T280 742H336Q346 742 353 739T370 726L468 625Q477 616 477 608Q477 595 462 595H424Q406 595 393 602L308 655L223 602Q210
595 192 595H155Q140 595 140 608Z" />
<glyph unicode="&#xfc;" glyph-name="udieresis" horiz-adv-x="622" d="M167 -10T114 50T61 215V496Q61 507 68 513T85 520H175Q185 520 192 513T199 496V221Q199 98 306 98Q358 98 388 131T419 221V496Q419 507 426 513T443 520H532Q543 520 549 514T556 496V24Q556
14 550 7T532 0H449Q439 0 432 7T425 24V65Q370 -10 259 -10Q167 -10 114 50ZM167 614T161 620T155 636V710Q155 720 161 726T177 733H251Q261 733 267 727T274 710V636Q274 626 268 620T251 614H177Q167 614 161 620ZM356 614T350 620T344 636V710Q344 720 350
726T366 733H440Q450 733 456 727T463 710V636Q463 626 457 620T440 614H366Q356 614 350 620Z" />
<glyph unicode="&#xfd;" glyph-name="yacute" horiz-adv-x="575" d="M152 -190T146 -184T139 -170Q139 -163 143 -154L222 31L30 484Q26 493 26 498Q27 507 33 513T48 520H131Q149 520 157 501L290 175L425 501Q435 520 453 520H534Q543 520 549 514T555 500Q555
493 551 484L268 -171Q260 -190 240 -190H160Q152 -190 146 -184ZM231 595T231 611Q231 619 236 624L318 723Q327 734 334 738T355 742H456Q465 742 470 737T475 722Q475 715 470 710L345 608Q336 601 329 598T310 595H247Q231 595 231 611Z" />
<glyph unicode="&#xfe;" glyph-name="thorn" horiz-adv-x="615" d="M81 -190T74 -184T67 -166V686Q67 697 74 703T91 710H178Q189 710 195 704T202 686V460Q228 494 264 512T356 530Q457 530 511 467T569 296Q570 284 570 260Q570 236 569 224Q565 119 511 55T356
-10Q255 -10 202 61V-166Q202 -177 196 -183T178 -190H91Q81 -190 74 -184ZM424 98T431 230Q432 240 432 260Q432 280 431 290Q424 422 318 422Q261 422 233 386T202 295L201 257L202 218Q204 168 233 133T318 98Q424 98 431 230Z" />
<glyph unicode="&#xff;" glyph-name="ydieresis" horiz-adv-x="575" d="M152 -190T146 -184T139 -170Q139 -163 143 -154L222 31L30 484Q26 493 26 498Q27 507 33 513T48 520H131Q149 520 157 501L290 175L425 501Q435 520 453 520H534Q543 520 549 514T555 500Q555
493 551 484L268 -171Q260 -190 240 -190H160Q152 -190 146 -184ZM148 614T142 620T136 636V710Q136 720 142 726T158 733H232Q242 733 248 727T255 710V636Q255 626 249 620T232 614H158Q148 614 142 620ZM337 614T331 620T325 636V710Q325 720 331 726T347 733H421Q431
733 437 727T444 710V636Q444 626 438 620T421 614H347Q337 614 331 620Z" />
<glyph unicode="&#x2013;" glyph-name="endash" horiz-adv-x="570" d="M76 242T69 249T62 266V334Q62 344 69 351T86 358H484Q495 358 501 352T508 334V266Q508 256 501 249T484 242H86Q76 242 69 249Z" />
<glyph unicode="&#x2014;" glyph-name="emdash" horiz-adv-x="760" d="M76 242T69 249T62 266V334Q62 344 69 351T86 358H674Q685 358 691 352T698 334V266Q698 256 691 249T674 242H86Q76 242 69 249Z" />
<glyph unicode="&#x2018;" glyph-name="quoteleft" horiz-adv-x="253" d="M51 486T46 491T41 504Q41 512 43 518L108 684Q114 696 121 703T141 710H193Q202 710 207 704T211 688L184 518Q182 504 174 495T152 486H59Q51 486 46 491Z" />
<glyph unicode="&#x2019;" glyph-name="quoteright" horiz-adv-x="247" d="M57 486T53 492T49 508L76 678Q78 692 85 701T108 710H201Q208 710 213 705T219 692Q219 686 216 678L151 511Q141 486 118 486H66Q57 486 53 492Z" />
<glyph unicode="&#x201a;" glyph-name="quotesinglbase" horiz-adv-x="264" d="M50 -75T45 -69T42 -53L68 117Q70 131 78 140T101 149H193Q201 149 206 144T211 131Q211 123 209 117L144 -49Q138 -61 131 -68T111 -75H59Q50 -75 45 -69Z" />
<glyph unicode="&#x201c;" glyph-name="quotedblleft" horiz-adv-x="445" d="M51 486T46 491T41 504Q41 512 43 518L108 684Q114 696 121 703T141 710H193Q202 710 207 704T211 688L184 518Q182 504 174 495T152 486H59Q51 486 46 491ZM243 486T238 491T232 504Q232
509 235 518L300 684Q310 710 333 710H385Q393 710 398 704T402 688L376 518Q370 486 343 486H250Q243 486 238 491Z" />
<glyph unicode="&#x201d;" glyph-name="quotedblright" horiz-adv-x="439" d="M58 486T53 492T49 508L76 678Q78 692 85 701T108 710H201Q208 710 213 705T219 692Q219 686 216 678L151 511Q141 486 118 486H66Q58 486 53 492ZM249 486T245 492T241 508L267 678Q269
692 277 701T300 710H392Q400 710 405 705T410 692Q410 683 408 678L343 511Q338 499 331 493T310 486H258Q249 486 245 492Z" />
<glyph unicode="&#x201e;" glyph-name="quotedblbase" horiz-adv-x="456" d="M50 -75T45 -69T42 -53L68 117Q70 131 78 140T101 149H193Q201 149 206 144T211 131Q211 123 209 117L144 -49Q138 -61 131 -68T111 -75H59Q50 -75 45 -69ZM242 -75T237 -69T233 -54L260
117Q262 131 269 140T292 149H385Q392 149 397 144T403 131Q403 126 400 117L335 -49Q325 -75 302 -75H250Q242 -75 237 -69Z" />
<glyph unicode="&#x2022;" glyph-name="bullet" horiz-adv-x="383" d="M143 204T109 238T75 321Q75 369 109 403T192 438Q240 438 274 404T308 321Q308 273 274 239T192 204Q143 204 109 238Z" />
<glyph unicode="&#x2039;" glyph-name="guilsinglleft" horiz-adv-x="349" d="M263 75T252 84L52 279Q38 292 36 311V347Q38 366 52 380L252 574Q263 583 272 583Q281 583 287 577T293 562V493Q293 479 289 471T275 453L147 329L275 205Q285 195 289 187T293 165V96Q293
87 287 81T272 75Q263 75 252 84Z" />
<glyph unicode="&#x203a;" glyph-name="guilsinglright" horiz-adv-x="349" d="M68 75T62 81T56 96V165Q56 179 60 187T74 205L202 329L74 453Q64 463 60 471T56 493V562Q56 571 62 577T77 583Q86 583 97 574L297 380Q311 366 313 347V311Q311 292 297 279L97
84Q87 75 77 75Q68 75 62 81Z" />
</font>
</defs>
</svg>
