<?xml version="1.0" standalone="no"?>
<!DOCTYPE svg PUBLIC "-//W3C//DTD SVG 1.1//EN" "http://www.w3.org/Graphics/SVG/1.1/DTD/svg11.dtd">
<svg xmlns="http://www.w3.org/2000/svg">
<defs >
<font id="Rubik" horiz-adv-x="557" ><font-face
    font-family="Rubik"
    units-per-em="1000"
    panose-1="0 0 5 0 0 0 0 0 0 0"
    ascent="935"
    descent="-250"
    alphabetic="0" />
<glyph unicode=" " glyph-name="space" horiz-adv-x="251" />
<glyph unicode="!" glyph-name="exclam" horiz-adv-x="244" d="M63 164T58 170T55 187L159 677Q161 687 168 693T186 700H230Q240 700 245 694T248 677L144 187Q142 177 134 171T116 164H73Q63 164 58 170ZM19 0T14 6T11 23L23 84Q25 94 33 100T51 107H112Q122
107 127 101T131 84L118 23Q116 13 108 7T90 0H29Q19 0 14 6Z" />
<glyph unicode="&quot;" glyph-name="quotedbl" horiz-adv-x="370" d="M113 491T117 513L136 687Q137 697 144 703T161 710H224Q234 710 238 704T240 687L186 513Q184 504 177 498T161 491H131Q113 491 117 513ZM266 491T270 513L290 687Q291 697 297 703T314
710H377Q385 710 390 706T395 695L393 687L339 513Q334 491 314 491H285Q266 491 270 513Z" />
<glyph unicode="#" glyph-name="numbersign" horiz-adv-x="697" d="M126 39T121 45T118 60L163 182H63Q53 182 48 188T44 204L51 236Q53 246 61 252T79 258H190L254 436H143Q133 436 128 442T124 458L131 490Q133 500 141 506T159 512H282L326 634Q329 643 336
649T353 655H387Q396 655 401 649T403 634L359 512H509L553 634Q556 643 563 649T580 655H614Q623 655 628 649T630 634L586 512H685Q695 512 699 506T702 490L695 458Q694 448 687 442T669 436H559L495 258H605Q615 258 619 252T622 236L615 204Q614 194 607 188T589
182H467L423 60Q414 39 396 39H362Q353 39 348 45T345 60L390 182H240L196 60Q187 39 169 39H135Q126 39 121 45ZM268 258H417L481 436H332L268 258Z" />
<glyph unicode="$" glyph-name="dollar" horiz-adv-x="616" d="M193 -100T188 -94T185 -77L200 -7Q109 3 61 47T13 155Q13 169 14 176Q15 184 22 190T39 196H87Q105 196 109 176Q108 134 144 104T254 73Q339 73 390 103T453 186Q455 193 455 206Q455 233 436 251T382
284T278 321Q188 349 146 386T104 484Q104 510 109 531Q125 606 187 653T347 708L364 777Q366 787 373 793T392 800H428Q438 800 442 794T445 777L429 706Q485 699 524 675T582 618T602 550Q602 544 600 530Q598 521 592 515T575 509H525Q517 509 511 514T504 529Q507
571 471 599T377 628Q308 628 261 601T202 523Q199 511 199 500Q199 462 235 439T361 388Q461 358 506 321T552 224Q552 207 547 180Q528 92 460 44T281 -9L267 -77Q265 -87 257 -93T239 -100H203Q193 -100 188 -94Z" />
<glyph unicode="%" glyph-name="percent" horiz-adv-x="781" d="M153 345T120 375T86 456Q86 464 88 480Q94 523 107 570Q123 633 165 669T273 705Q330 705 363 675T396 595Q396 587 394 569Q386 522 375 479Q359 417 317 381T209 345Q153 345 120 375ZM44 0T40
4T35 15Q35 23 43 31L674 681Q685 692 692 696T711 700H750Q759 700 763 696T768 684Q768 676 761 669L130 19Q120 9 112 5T92 0H53Q44 0 40 4ZM248 410T272 432T305 483Q316 525 322 566Q324 580 324 588Q324 640 271 640Q232 640 209 619T177 566Q166 526 160
483Q159 477 159 466Q159 441 171 426T211 410Q248 410 272 432ZM474 -6T441 24T407 105Q407 113 409 129Q416 174 428 220Q444 283 486 318T594 354Q651 354 684 324T717 244Q717 236 715 218Q707 171 696 128Q680 66 638 30T530 -6Q474 -6 441 24ZM569 59T593
81T626 132Q637 177 643 215Q645 229 645 237Q645 289 592 289Q553 289 530 268T498 215Q487 174 481 132Q480 126 480 115Q480 90 492 75T532 59Q569 59 593 81Z" />
<glyph unicode="&amp;" glyph-name="ampersand" horiz-adv-x="692" d="M146 -10T95 32T43 146Q43 168 47 187Q61 250 107 294T230 378Q200 417 187 448T174 511Q174 522 178 546Q188 590 219 627T297 687T399 710Q469 710 510 675T551 582Q551 563 547 547Q534
486 486 445T355 361L491 192Q546 261 578 346Q580 355 587 360T604 366H645Q654 366 658 360T661 345Q650 300 618 244T537 135L618 34Q622 28 622 22Q622 12 616 6T599 0H546Q529 0 521 10L469 76Q363 -10 235 -10Q146 -10 95 32ZM388 454T426 486T464 565Q464
598 442 616T382 635Q353 635 326 621T281 582T263 525Q263 504 274 480T313 418Q388 454 426 486ZM294 68T338 85T423 136L272 320Q215 291 181 261T136 189Q133 176 133 164Q133 119 167 94T252 68Q294 68 338 85Z" />
<glyph unicode="&apos;" glyph-name="quotesingle" horiz-adv-x="216" d="M113 491T117 513L136 687Q137 697 144 703T161 710H224Q234 710 238 704T240 687L185 510Q183 500 178 496T162 491H131Q113 491 117 513Z" />
<glyph unicode="(" glyph-name="parenleft" horiz-adv-x="335" d="M109 -159T69 -106T28 60Q28 157 60 309Q97 482 136 581T236 728T389 776Q399 776 404 770T408 753L401 720Q399 711 392 705T376 698Q319 697 279 660T208 539T144 309Q109 143 109 58Q109 -15
133 -47T210 -81Q218 -81 223 -87T225 -103L218 -136Q217 -146 209 -152T191 -159Q109 -159 69 -106Z" />
<glyph unicode=")" glyph-name="parenright" horiz-adv-x="335" d="M-60 -159T-65 -153T-69 -136L-62 -103Q-60 -94 -53 -88T-37 -81Q20 -80 60 -43T131 78T195 308Q230 474 230 559Q230 632 206 664T129 698Q121 698 117 704T114 720L121 753Q122 763 130 769T148
776Q230 776 270 723T311 557Q311 460 279 308Q242 134 203 36T104 -111T-51 -159Q-60 -159 -65 -153Z" />
<glyph unicode="*" glyph-name="asterisk" horiz-adv-x="446" d="M290 695Q291 707 299 714T319 719L354 700Q366 697 366 685Q366 675 362 670L314 583L409 618Q417 620 420 620Q435 620 435 603L421 557Q421 546 413 541T394 538L300 537L345 466Q348 460 348
454Q348 440 334 434L288 425Q282 423 279 423Q272 423 268 428T263 441L253 528L183 445Q174 436 165 436Q158 436 152 443L139 484Q135 488 135 493Q135 499 140 505T153 515L238 569L153 591Q139 596 139 608Q139 614 144 621L183 655Q191 664 199 664Q205 664
211 658L276 603L290 695Z" />
<glyph unicode="+" glyph-name="plus" horiz-adv-x="617" d="M227 33T222 39T218 56L263 265H56Q46 265 41 271T38 288L44 318Q46 328 54 334T72 341H279L322 544Q324 554 331 560T350 567H383Q393 567 397 561T400 544L357 341H564Q574 341 579 335T582 318L576
288Q575 278 567 272T549 265H341L297 56Q295 46 288 40T270 33H237Q227 33 222 39Z" />
<glyph unicode="," glyph-name="comma" horiz-adv-x="250" d="M45 116T68 116H133Q139 116 142 112T146 102Q146 97 144 94L59 -52Q52 -64 45 -69T26 -75H-7Q-13 -75 -16 -72T-20 -63Q-20 -60 -18 -54L34 87Q45 116 68 116Z" />
<glyph unicode="-" glyph-name="hyphen" horiz-adv-x="485" d="M74 260T69 266T66 282L73 318Q76 328 83 334T101 341H401Q411 341 416 335T419 318L412 282Q410 272 402 266T384 260H84Q74 260 69 266Z" />
<glyph unicode="." glyph-name="period" horiz-adv-x="247" d="M20 0T15 6T12 23L26 92Q28 102 36 109T54 116H123Q133 116 138 109T142 92L127 23Q125 13 117 7T99 0H30Q20 0 15 6Z" />
<glyph unicode="/" glyph-name="slash" horiz-adv-x="485" d="M-39 -84T-44 -80T-50 -68Q-50 -63 -45 -55L474 769Q485 786 503 786H540Q548 786 553 782T558 771Q558 765 553 757L34 -67Q23 -84 5 -84H-32Q-39 -84 -44 -80Z" />
<glyph unicode="0" glyph-name="zero" horiz-adv-x="631" d="M157 -10T103 39T49 186Q49 218 57 263Q72 351 94 438Q127 574 201 642T394 710Q495 710 549 660T604 512Q604 474 597 438Q582 350 560 263Q526 125 453 58T259 -10Q157 -10 103 39ZM340 73T390 120T465
268Q486 351 500 433Q508 481 508 512Q508 572 480 600T391 628Q313 628 263 581T189 433Q169 356 153 268Q145 220 145 190Q145 129 173 101T263 73Q340 73 390 120Z" />
<glyph unicode="1" glyph-name="one" horiz-adv-x="421" d="M200 0T195 6T191 23L309 578L119 453Q110 447 103 447Q92 447 87 457L67 493Q64 498 64 502Q64 515 79 525L333 693Q340 697 344 698T357 700H406Q416 700 421 694T425 677L285 23Q283 13 276 7T258
0H210Q200 0 195 6Z" />
<glyph unicode="2" glyph-name="two" horiz-adv-x="584" d="M13 0T8 6T5 23L12 53Q16 76 46 97L310 314Q398 377 434 417T480 502Q484 519 484 538Q484 581 457 604T377 628Q318 628 275 593T212 499Q207 488 198 482T181 476H133Q124 476 119 481T116 496Q129
549 166 598T262 679T395 711Q490 711 536 668T582 554Q582 525 577 504Q564 442 523 391T403 284L165 84H479Q489 84 494 78T497 61L490 23Q488 13 480 7T461 0H23Q13 0 8 6Z" />
<glyph unicode="3" glyph-name="three" horiz-adv-x="598" d="M173 -10T124 11T51 68T27 145Q27 153 29 167Q31 176 38 181T55 187H100Q122 187 124 165Q126 114 165 93T263 72Q335 72 385 106T449 205Q453 221 453 238Q453 327 326 327H232Q222 327 217 333T213
350L219 376Q224 393 236 402L476 618H180Q170 618 166 624T163 640L170 676Q172 687 180 693T198 700H594Q605 700 610 694T613 676L606 643Q603 632 591 620L349 401H365Q452 399 501 362T550 254Q550 231 544 202Q530 137 488 89T382 16T245 -10Q173 -10 124
11Z" />
<glyph unicode="4" glyph-name="four" horiz-adv-x="620" d="M333 0T328 6T324 23L356 169H27Q17 169 12 175T9 192L17 229Q19 239 22 244T31 256L426 683Q441 700 466 700H538Q548 700 553 694T556 677L466 253H556Q566 253 571 247T574 230L566 192Q565 182
557 176T539 169H448L417 23Q415 13 408 7T390 0H343Q333 0 328 6ZM137 251H374L445 588L137 251Z" />
<glyph unicode="5" glyph-name="five" horiz-adv-x="591" d="M163 -10T115 12T43 73T18 158Q18 165 20 181Q21 190 28 195T44 201H93Q117 201 116 179Q112 126 147 99T236 72Q307 72 361 113T431 228Q436 253 436 269Q436 320 404 347T312 374Q276 374 250 365T197
338Q181 329 171 325T151 320H103Q93 320 88 327T86 343L188 675Q191 687 199 693T218 700H564Q574 700 579 694T583 677L574 640Q572 630 565 624T547 618H259L197 417Q220 431 251 441T330 451Q419 451 476 404T533 275Q533 247 528 224Q505 111 428 51T233 -10Q163
-10 115 12Z" />
<glyph unicode="6" glyph-name="six" horiz-adv-x="600" d="M154 -10T99 42T43 177Q43 203 49 230Q67 316 157 414L405 680Q415 690 422 695T442 700H491Q500 700 504 694T506 678Q505 673 503 670T499 665L309 461Q336 467 369 467Q431 467 476 443T545 376T569
282Q569 258 563 231Q550 167 508 112T401 23T256 -10Q154 -10 99 42ZM341 73T396 114T468 230Q472 247 472 267Q472 324 435 355T339 387Q272 387 216 345T145 230Q141 211 141 191Q141 135 178 104T273 73Q341 73 396 114Z" />
<glyph unicode="7" glyph-name="seven" horiz-adv-x="510" d="M92 0T88 6T86 22Q86 25 90 31L464 616H134Q124 616 119 622T116 639L124 676Q126 687 133 693T152 700H560Q571 700 575 694T578 676L571 642Q568 623 554 603L185 25Q176 13 169 7T151 0H101Q92 0 88 6Z" />
<glyph unicode="8" glyph-name="eight" horiz-adv-x="631" d="M189 -10T138 11T58 72T30 164Q30 185 34 202Q46 261 86 305T182 373Q155 393 139 422T123 489Q123 499 127 523Q144 610 218 660T395 710Q486 710 543 668T600 553Q600 538 597 521Q588 471 560 435T483
373Q518 354 538 317T559 237Q559 216 555 199Q535 100 457 45T258 -10Q189 -10 138 11ZM378 409T419 426T485 475T510 546Q510 586 479 609T392 632Q317 632 266 594T214 492Q214 452 244 430T333 408Q378 409 419 426ZM314 68T360 89T434 147T462 229Q462 277
426 304T328 332Q277 332 230 313T154 257T125 173Q125 124 162 96T261 68Q314 68 360 89Z" />
<glyph unicode="9" glyph-name="nine" horiz-adv-x="591" d="M136 0T132 6T130 22Q131 29 137 35L336 249Q311 243 279 243Q187 244 136 295T85 424Q85 449 91 474Q104 534 143 588T247 676T391 710Q493 710 546 658T599 526Q599 497 594 476Q582 421 554 379T483
292L231 20Q214 0 195 0H145Q136 0 132 6ZM375 322T429 364T498 474Q502 490 502 509Q502 563 466 595T374 628Q331 628 292 609T224 555T186 474Q182 458 182 438Q182 385 217 354T309 322Q375 322 429 364Z" />
<glyph unicode=":" glyph-name="colon" horiz-adv-x="255" d="M94 350T90 356T87 373L101 440Q103 451 111 457T129 464H198Q208 464 213 457T216 440L202 373Q200 363 192 357T173 350H104Q94 350 90 356ZM20 0T15 6T12 23L26 90Q28 100 36 107T54 114H123Q133
114 138 107T141 90L127 23Q125 13 117 7T99 0H30Q20 0 15 6Z" />
<glyph unicode=";" glyph-name="semicolon" horiz-adv-x="270" d="M121 350T116 356T112 373L126 440Q128 450 136 457T154 464H223Q234 464 239 457T242 440L228 373Q226 363 218 357T200 350H131Q121 350 116 356ZM3 -75T3 -63L5 -54L56 87Q67 116 91 116H155Q161
116 165 111T168 99Q168 98 161 82L80 -52Q73 -63 66 -69T46 -75H15Q3 -75 3 -63Z" />
<glyph unicode="&lt;" glyph-name="less" horiz-adv-x="491" d="M361 72T347 83L80 298Q60 314 60 333Q60 339 61 343L64 360Q67 374 76 384T103 406L461 621Q464 622 473 626T488 631Q497 631 501 626T504 611L495 570Q492 559 486 552T465 537L156 352L387 167Q398
157 401 151T402 134L393 93Q392 84 385 78T369 72Q361 72 347 83Z" />
<glyph unicode="=" glyph-name="equal" horiz-adv-x="572" d="M106 387T101 393T97 410L104 441Q106 451 114 457T132 463H512Q522 463 526 457T529 441L523 410Q522 400 514 394T496 387H116Q106 387 101 393ZM52 137T47 143T44 160L51 191Q53 201 61 207T79
213H459Q469 213 473 207T476 191L470 160Q468 150 461 144T443 137H63Q52 137 47 143Z" />
<glyph unicode="&gt;" glyph-name="greater" horiz-adv-x="490" d="M47 72T43 77T39 93L48 134Q50 145 56 151T78 167L387 352L157 537Q146 545 142 552T140 570L149 611Q151 621 158 626T174 631Q180 631 186 627T195 621L462 406Q473 397 478 389T483 370Q483
364 482 360L478 343Q475 330 466 320T440 298L82 83Q63 72 55 72Q47 72 43 77Z" />
<glyph unicode="?" glyph-name="question" horiz-adv-x="528" d="M220 161T216 167T212 183L221 224Q234 277 267 316T359 403Q402 439 425 463T457 516Q462 530 462 547Q462 585 431 607T353 629Q233 629 184 507Q175 485 154 485H109Q100 485 95 491T92 507Q105
562 145 608T244 682T372 710Q466 710 512 670T559 568Q559 546 553 523Q540 476 510 441T427 360Q380 320 355 292T319 227L308 185Q300 161 279 161H229Q220 161 216 167ZM176 0T172 6T169 23L181 81Q183 91 191 98T209 105H271Q281 105 286 98T290 81L277 23Q275
13 267 7T248 0H186Q176 0 172 6Z" />
<glyph unicode="@" glyph-name="at" horiz-adv-x="831" d="M193 -118T121 -52T48 138Q48 162 51 187Q54 215 66 274T87 358Q133 500 240 582T499 665Q801 665 801 430Q801 396 795 358Q787 299 768 227Q748 155 705 117T601 79Q533 79 503 136Q451 69 363 69Q302
69 269 104T235 205Q235 233 243 273Q263 369 318 423T449 478Q486 478 507 465T540 430L544 447Q546 457 554 463T572 470H598Q608 470 613 464T616 447L571 233Q568 217 568 203Q568 176 580 162T615 148Q651 148 670 175T698 234Q716 303 723 353Q727 380 727
410Q727 503 670 549T484 596Q362 596 280 533T158 353Q150 328 139 274T124 192Q122 166 122 154Q122 56 180 4T351 -49Q417 -49 461 -38T527 -16T580 16Q582 17 590 23T609 29H647Q657 29 661 23T664 7Q663 2 657 -8Q598 -58 522 -88T336 -118Q193 -118 121 -52ZM434
138T464 173T507 273Q514 310 514 330Q514 410 439 410Q344 410 314 273Q309 252 309 224Q309 184 326 161T382 138Q434 138 464 173Z" />
<glyph unicode="A" glyph-name="A" horiz-adv-x="671" d="M-30 0T-35 5T-40 19Q-40 25 -37 31L349 678Q363 700 385 700H457Q481 700 484 678L595 31Q597 16 592 8T575 0H528Q517 0 511 5T503 22L476 161H146L58 17Q48 0 30 0H-21Q-30 0 -35 5ZM192 244H466L405
603L192 244Z" />
<glyph unicode="B" glyph-name="B" horiz-adv-x="670" d="M38 0T33 6T30 23L168 676Q170 687 178 693T196 700H466Q551 700 599 659T648 553Q648 533 644 516Q631 455 598 420T526 368Q558 348 577 316T596 241Q596 221 592 202Q572 112 509 56T333 0H48Q38 0
33 6ZM387 403Q450 403 493 433T547 515Q551 537 551 546Q551 621 446 621H252L205 403H387ZM331 79Q393 79 438 114T495 202Q499 219 499 238Q499 325 385 325H188L136 79H331Z" />
<glyph unicode="C" glyph-name="C" horiz-adv-x="664" d="M168 -10T108 45T48 198Q48 228 54 261Q66 333 92 439Q124 566 204 638T418 710Q498 710 552 685T634 618T661 523Q661 505 658 487Q655 467 638 467H585Q561 467 562 489Q563 496 563 508Q563 628 414
628Q329 628 270 581T187 434Q166 351 151 266Q145 233 145 205Q145 73 286 73Q362 73 415 104T502 211Q507 223 513 228T530 233H583Q592 233 597 228T599 213Q572 118 496 54T283 -10Q168 -10 108 45Z" />
<glyph unicode="D" glyph-name="D" horiz-adv-x="687" d="M38 0T33 6T30 23L168 676Q170 687 178 693T196 700H410Q528 700 593 647T658 494Q658 464 652 429Q632 333 618 272Q595 176 557 117T454 29T290 0H48Q38 0 33 6ZM291 83Q395 83 447 127T524 276Q545
366 556 425Q563 459 563 490Q563 556 524 587T400 618H251L136 83H291Z" />
<glyph unicode="E" glyph-name="E" horiz-adv-x="604" d="M38 0T33 6T30 23L168 676Q170 687 178 693T196 700H607Q618 700 622 694T625 676L618 640Q616 630 608 624T590 618H249L201 395H520Q530 395 535 389T538 371L531 337Q529 327 522 321T503 314H184L135
83H484Q494 83 499 77T502 59L495 23Q493 13 485 7T467 0H48Q38 0 33 6Z" />
<glyph unicode="F" glyph-name="F" horiz-adv-x="585" d="M38 0T33 6T30 23L168 676Q170 687 178 693T196 700H602Q613 700 618 694T621 676L613 639Q611 629 604 623T585 616H250L199 379H514Q524 379 529 373T532 356L524 318Q522 308 515 302T496 295H181L123
23Q121 13 113 7T95 0H48Q38 0 33 6Z" />
<glyph unicode="G" glyph-name="G" horiz-adv-x="679" d="M178 -10T120 43T62 192Q62 223 68 257Q84 349 108 445Q138 567 225 638T443 710Q524 710 576 683T653 616T678 537Q678 531 676 519Q674 510 668 504T651 498H596Q587 498 583 502T577 517Q572 563 536
595T425 628Q341 628 284 582T203 440Q181 354 164 262Q159 230 159 209Q159 73 308 73Q393 73 454 119T534 259L543 302H390Q380 302 376 308T373 326L379 356Q381 366 389 373T407 380H631Q642 380 647 373T650 356L629 261Q612 180 566 119T448 24T290 -10Q178
-10 120 43Z" />
<glyph unicode="H" glyph-name="H" horiz-adv-x="713" d="M38 0T33 6T30 23L168 676Q170 687 178 693T196 700H244Q255 700 260 694T263 676L203 398H552L611 676Q613 687 621 693T639 700H687Q698 700 702 694T705 676L567 23Q565 13 557 7T539 0H491Q481 0 476
6T472 23L534 311H186L124 23Q122 13 114 7T96 0H48Q38 0 33 6Z" />
<glyph unicode="I" glyph-name="I" horiz-adv-x="271" d="M37 0T32 6T29 23L169 677Q170 687 178 693T196 700H246Q256 700 261 694T265 677L125 23Q123 13 116 7T98 0H47Q37 0 32 6Z" />
<glyph unicode="J" glyph-name="J" horiz-adv-x="628" d="M177 -10T126 9T44 69T13 168Q13 190 15 201Q17 211 23 217T38 223H91Q101 223 106 217T111 200Q110 193 110 179Q110 73 240 73Q324 73 373 122T442 258L518 616H162Q152 616 147 622T143 639L152 677Q153
687 161 693T179 700H608Q619 700 624 694T627 676L538 256Q511 128 439 59T236 -10Q177 -10 126 9Z" />
<glyph unicode="K" glyph-name="K" horiz-adv-x="587" d="M38 0T33 6T30 23L168 676Q170 687 177 693T195 700H243Q254 700 259 694T262 676L211 435L512 684Q520 691 529 695T553 700H606Q615 700 620 694T625 680Q625 672 619 666L255 362L514 34Q519 28 519
20Q519 12 513 6T498 0H448Q425 0 414 16L183 305L123 23Q121 13 114 7T97 0H48Q38 0 33 6Z" />
<glyph unicode="L" glyph-name="L" horiz-adv-x="554" d="M38 0T33 6T30 23L169 677Q170 687 178 693T196 700H245Q255 700 260 694T264 677L137 84H471Q482 84 487 78T490 61L482 23Q480 13 472 7T454 0H48Q38 0 33 6Z" />
<glyph unicode="M" glyph-name="M" horiz-adv-x="795" d="M39 0T34 6T30 23L168 676Q170 687 178 693T197 700H245Q255 700 260 695T267 685L394 276L695 685Q706 700 722 700H769Q780 700 785 694T788 676L649 23Q647 13 639 7T621 0H575Q565 0 560 6T556 23L659
507L426 189Q410 168 390 168H361Q349 168 343 173T333 189L229 529L122 23Q120 13 113 7T95 0H49Q39 0 34 6Z" />
<glyph unicode="N" glyph-name="N" horiz-adv-x="696" d="M38 0T33 6T30 23L168 676Q170 687 177 693T195 700H238Q255 700 260 686L488 164L597 676Q599 687 606 693T625 700H670Q681 700 685 694T688 676L550 24Q548 13 541 7T523 0H480Q464 0 458 14L230 531L122
23Q120 13 112 7T94 0H48Q38 0 33 6Z" />
<glyph unicode="O" glyph-name="O" horiz-adv-x="675" d="M174 -10T111 42T48 197Q48 223 55 265Q74 368 91 434Q124 571 207 640T417 710Q524 710 586 657T649 501Q649 470 643 434Q627 346 606 265Q573 127 490 59T281 -10Q174 -10 111 42ZM368 73T427 121T512
270Q533 359 546 430Q552 466 552 495Q552 564 517 596T413 628Q329 628 270 580T186 430Q169 364 152 270Q145 228 145 204Q145 136 180 105T285 73Q368 73 427 121Z" />
<glyph unicode="P" glyph-name="P" horiz-adv-x="642" d="M38 0T33 6T30 23L168 676Q170 687 178 693T196 700H442Q541 700 596 660T652 541Q652 516 646 487Q624 382 553 329T367 275H179L125 23Q123 13 116 7T98 0H48Q38 0 33 6ZM365 356Q438 356 487 390T550
487Q556 514 556 535Q556 577 528 598T432 619H252L195 356H365Z" />
<glyph unicode="Q" glyph-name="Q" horiz-adv-x="675" d="M466 -65T460 -60T451 -49T447 -42L418 15Q361 -10 287 -10Q177 -10 120 38T62 186Q62 219 70 265Q83 340 105 434Q138 570 226 640T440 710Q546 710 605 659T664 509Q664 477 656 434Q640 340 621 265Q586
126 504 60L551 -34Q553 -38 552 -45Q550 -53 543 -59T527 -65H476Q466 -65 460 -60ZM385 73T443 121T526 270Q547 355 560 430Q566 462 566 487Q566 558 528 593T422 628Q342 628 284 579T200 430Q179 340 167 270Q161 239 161 212Q161 142 199 108T304 73Q385
73 443 121Z" />
<glyph unicode="R" glyph-name="R" horiz-adv-x="654" d="M51 0T47 6T44 23L182 676Q184 687 192 693T210 700H454Q551 700 604 661T658 546Q658 521 652 491Q636 415 588 366T467 298L565 31Q567 24 566 20Q564 12 557 6T541 0H497Q482 0 476 7T464 27L372 283H193L138
23Q136 13 128 7T109 0H61Q51 0 47 6ZM379 365Q530 365 556 492Q560 509 560 528Q560 619 432 619H264L211 365H379Z" />
<glyph unicode="S" glyph-name="S" horiz-adv-x="618" d="M176 -10T123 12T42 73T15 157Q15 169 16 176Q18 185 23 190T38 196H90Q108 196 112 176Q111 134 147 104T257 73Q342 73 393 103T456 186Q458 193 458 206Q458 233 439 251T385 284T281 321Q191 349 149
386T107 484Q107 510 112 531Q130 613 200 661T384 710Q454 710 504 687T579 626T605 549Q605 542 603 530Q599 509 581 509H528Q520 509 514 514T507 529Q510 571 474 599T380 628Q311 628 264 601T205 523Q202 511 202 500Q202 462 238 439T364 388Q464 358 509
321T555 223Q555 205 550 180Q530 86 454 38T254 -10Q176 -10 123 12Z" />
<glyph unicode="T" glyph-name="T" horiz-adv-x="571" d="M188 0T183 6T180 23L306 614H113Q103 614 98 620T95 637L103 676Q105 687 112 693T131 700H610Q621 700 626 694T629 676L620 637Q618 627 611 621T593 614H401L274 23Q272 13 265 7T247 0H198Q188 0 183 6Z" />
<glyph unicode="U" glyph-name="U" horiz-adv-x="700" d="M183 -10T125 38T66 183Q66 224 76 270L162 676Q164 687 172 693T190 700H238Q249 700 253 694T256 676L169 268Q160 226 160 192Q160 132 193 103T297 74Q385 74 441 122T518 268L605 676Q607 687 615
693T634 700H682Q692 700 696 694T699 676L613 270Q582 125 505 58T293 -10Q183 -10 125 38Z" />
<glyph unicode="V" glyph-name="V" horiz-adv-x="654" d="M204 0T201 26L113 675V679Q113 689 119 694T134 700H183Q203 700 205 682L282 110L601 682Q610 700 628 700H685Q693 700 697 695T702 683Q702 674 698 669L337 26Q322 0 296 0H232Q204 0 201 26Z" />
<glyph unicode="W" glyph-name="W" horiz-adv-x="789" d="M112 0T114 26L119 679Q119 688 125 694T141 700H187Q198 700 203 694T209 679L205 170L388 521Q400 545 425 545H459Q472 545 478 538T486 521L523 162L737 683Q744 700 765 700H815Q832 700 832 686Q832
682 830 674L567 26Q555 0 530 0H489Q463 0 461 25L417 409L216 25Q201 0 178 0H139Q112 0 114 26Z" />
<glyph unicode="X" glyph-name="X" horiz-adv-x="631" d="M-23 0T-28 6T-34 20Q-34 28 -29 33L274 360L119 669Q116 675 116 680Q116 688 122 694T138 700H184Q198 700 204 696T213 683L342 428L574 683Q581 691 588 695T610 700H661Q669 700 674 695T680 681Q680
672 675 667L384 344L545 30Q547 24 547 21Q547 13 541 7T525 0H479Q465 0 460 4T450 16L317 276L75 16Q73 15 69 11T57 3T40 0H-15Q-23 0 -28 6Z" />
<glyph unicode="Y" glyph-name="Y" horiz-adv-x="642" d="M224 0T219 6T215 23L265 260L111 667Q109 673 109 676Q109 685 116 692T134 700H178Q194 700 201 683L326 358L589 683Q603 700 619 700H678Q695 700 695 686Q695 677 687 667L360 260L309 23Q307 13
299 7T281 0H234Q224 0 219 6Z" />
<glyph unicode="Z" glyph-name="Z" horiz-adv-x="594" d="M-11 0T-16 7T-19 24L-10 64Q-7 77 -2 84T13 101L490 616H140Q130 616 125 622T121 639L129 676Q131 687 139 693T157 700H608Q619 700 623 694T626 676L618 636Q616 626 611 619T597 601L122 84H487Q498
84 503 78T506 61L498 23Q496 13 488 7T470 0H0Q-11 0 -16 7Z" />
<glyph unicode="[" glyph-name="bracketleft" horiz-adv-x="323" d="M-10 -159T-15 -153T-19 -136L171 753Q173 763 180 769T198 776H375Q386 776 391 770T394 753L387 720Q385 710 377 704T359 697H246L81 -77H194Q204 -77 209 -83T212 -100L204 -136Q203 -146
196 -152T177 -159H0Q-10 -159 -15 -153Z" />
<glyph unicode="\" glyph-name="backslash" horiz-adv-x="478" d="M299 -84T294 -61L125 763L124 768Q124 776 130 781T145 786H179Q201 786 206 763L375 -61L376 -66Q376 -74 371 -79T356 -84H322Q299 -84 294 -61Z" />
<glyph unicode="]" glyph-name="bracketright" horiz-adv-x="322" d="M337 776T342 770T345 753L156 -136Q155 -146 147 -152T129 -159H-48Q-58 -159 -63 -153T-66 -136L-59 -100Q-57 -90 -49 -84T-31 -77H83L247 697H134Q124 697 119 703T116 720L123 753Q125
763 132 769T150 776H327Q337 776 342 770Z" />
<glyph unicode="^" glyph-name="asciicircum" horiz-adv-x="430" d="M140 578T143 590Q144 598 158 609L268 700Q280 710 287 712T304 715H333Q342 715 348 713T362 700L434 609Q442 597 441 590Q438 578 424 578H399Q392 578 385 580T373 585L303 642L209 585Q195
578 180 578H154Q140 578 143 590Z" />
<glyph unicode="_" glyph-name="underscore" horiz-adv-x="745" d="M6 -40T1 -34T-2 -17L5 19Q7 29 15 35T33 41H613Q623 41 628 35T631 19L623 -17Q621 -27 614 -33T596 -40H16Q6 -40 1 -34Z" />
<glyph unicode="`" glyph-name="grave" horiz-adv-x="212" d="M148 595T141 597T128 606L36 698Q31 703 31 710Q31 719 37 725T52 732H121Q134 732 140 729T154 714L208 626Q213 618 211 610Q209 604 204 600T192 595H159Q148 595 141 597Z" />
<glyph unicode="a" glyph-name="a" horiz-adv-x="584" d="M115 -10T74 40T32 171Q32 197 37 230Q40 255 50 290Q77 396 138 463T307 530Q367 530 400 511T454 456L463 497Q465 507 472 513T490 520H533Q543 520 548 514T551 497L451 23Q449 13 442 7T424 0H381Q371
0 366 6T362 23L372 66Q335 28 299 9T204 -10Q115 -10 74 40ZM293 68T340 115T403 225Q416 278 420 302Q424 328 424 340Q424 389 398 420T315 452Q248 452 206 407T142 289Q133 258 130 231Q125 198 125 174Q125 68 222 68Q293 68 340 115Z" />
<glyph unicode="b" glyph-name="b" horiz-adv-x="593" d="M210 -10T172 10T115 66L106 23Q104 13 96 7T78 0H36Q26 0 21 6T18 23L159 687Q161 697 168 703T187 710H232Q242 710 247 704T250 687L201 456Q236 492 275 511T369 530Q459 530 502 480T546 347Q546
318 542 294Q534 251 527 226Q501 122 437 56T268 -10Q210 -10 172 10ZM387 68T437 231Q444 253 449 289Q454 321 454 344Q454 394 431 423T350 452Q303 452 265 431T202 375T168 302Q158 263 152 225Q148 206 148 184Q148 133 174 101T259 68Q387 68 437 231Z"
/>
<glyph unicode="c" glyph-name="c" horiz-adv-x="549" d="M135 -10T83 37T30 170Q30 190 35 220Q47 280 52 300Q79 410 149 470T326 530Q394 530 437 507T499 449T519 376Q519 366 518 361Q517 351 511 345T495 338H447Q436 338 431 344T426 364Q426 453 322 453Q258
453 211 414T143 295L128 225Q123 193 123 174Q123 67 229 67Q336 67 382 157Q389 169 394 173T410 178H458Q467 178 472 172T474 155Q463 117 433 79T350 16T224 -10Q135 -10 83 37Z" />
<glyph unicode="d" glyph-name="d" horiz-adv-x="593" d="M118 -10T75 41T31 174Q31 198 36 230Q39 255 49 290Q75 395 138 462T309 530Q418 530 460 456L509 687Q511 697 518 703T536 710H581Q591 710 596 704T600 687L458 23Q456 13 449 7T431 0H389Q379 0 374
6T370 23L379 66Q343 28 305 9T207 -10Q118 -10 75 41ZM274 68T312 90T376 149T410 225Q418 254 427 302Q430 320 430 337Q430 387 403 419T318 452Q250 452 206 406T141 289Q134 267 129 231Q125 207 125 180Q125 68 226 68Q274 68 312 90Z" />
<glyph unicode="e" glyph-name="e" d="M141 -10T94 38T46 174Q46 202 50 227Q55 257 64 294Q94 402 168 466T345 530Q435 530 482 482T530 348Q530 312 521 270L517 252Q515 242 507 236T488 229H142L140 220Q137 202 137 184Q137 132 165 98T245 63Q292 63 326
81T378 120Q389 132 394 134T412 137H457Q466 137 471 132T474 117Q468 95 434 65T347 12T230 -10Q141 -10 94 38ZM435 297L436 300Q441 325 441 344Q441 396 412 427T330 458Q265 458 219 414T157 300V297H435Z" />
<glyph unicode="f" glyph-name="f" horiz-adv-x="379" d="M75 0T70 6T67 23L156 443H71Q61 443 56 449T52 465L59 497Q61 507 68 513T87 520H172L183 570Q200 650 249 695T380 740H447Q457 740 462 734T465 717L458 685Q456 675 448 669T430 663H379Q333 663 307
639T271 565L261 520H390Q400 520 405 514T408 497L401 465Q399 455 392 449T374 443H245L156 23Q154 13 147 7T129 0H85Q75 0 70 6Z" />
<glyph unicode="g" glyph-name="g" horiz-adv-x="593" d="M105 -220T61 -197T-1 -141T-19 -80Q-19 -71 -18 -68Q-17 -58 -10 -51T6 -44H55Q73 -44 74 -65Q76 -96 99 -120T181 -145Q333 -145 363 0L377 69Q342 34 303 15T209 -5Q118 -5 75 44T32 175Q32 202 37
235Q40 253 49 290Q76 395 139 462T309 530Q365 530 404 509T461 453L470 496Q472 506 480 513T498 520H541Q551 520 556 513T559 496L457 11Q441 -63 412 -113T326 -191T178 -220Q105 -220 61 -197ZM274 73T312 95T376 153T411 228Q422 266 425 297Q429 323 429
337Q429 387 403 419T318 452Q250 452 205 406T140 289Q131 258 129 236Q124 204 124 182Q124 73 227 73Q274 73 312 95Z" />
<glyph unicode="h" glyph-name="h" horiz-adv-x="607" d="M26 0T21 6T17 23L159 687Q161 697 168 703T186 710H233Q243 710 248 704T251 687L201 454Q235 491 275 510T372 530Q456 530 501 486T546 367Q546 335 539 306L478 23Q476 13 469 7T451 0H404Q394 0 389
6T386 23L444 300Q451 328 451 356Q451 452 350 452Q285 452 234 411T168 300L110 23Q108 13 101 7T83 0H36Q26 0 21 6Z" />
<glyph unicode="i" glyph-name="i" horiz-adv-x="241" d="M149 618T144 624T140 641L152 693Q154 703 161 710T179 717H239Q249 717 254 710T258 693L246 641Q245 631 237 625T219 618H159Q149 618 144 624ZM26 0T21 6T17 23L118 497Q120 507 128 513T146 520H190Q200
520 205 514T208 497L107 23Q105 13 98 7T80 0H36Q26 0 21 6Z" />
<glyph unicode="j" glyph-name="j" horiz-adv-x="253" d="M158 618T153 624T150 641L161 693Q163 703 171 710T189 717H250Q260 717 265 710T269 693L257 641Q256 631 248 625T230 618H168Q158 618 153 624ZM-123 -190T-127 -184T-130 -167L-124 -135Q-122 -125
-115 -119T-97 -113H-80Q-1 -113 20 -13L127 497Q129 507 137 513T155 520H201Q211 520 216 514T219 497L111 -14Q93 -98 47 -144T-89 -190H-113Q-123 -190 -127 -184Z" />
<glyph unicode="k" glyph-name="k" horiz-adv-x="513" d="M26 0T21 6T17 23L159 687Q161 697 168 703T186 710H229Q240 710 245 704T248 687L175 344L402 503Q418 514 425 517T446 520H504Q512 520 516 516T521 505Q521 492 505 480L230 285L438 35Q443 29 443
21Q443 12 437 6T422 0H375Q363 0 357 3T348 10T343 15L153 241L106 23Q104 13 97 7T79 0H36Q26 0 21 6Z" />
<glyph unicode="l" glyph-name="l" horiz-adv-x="242" d="M26 0T21 6T17 23L159 687Q161 697 168 703T186 710H230Q240 710 245 704T249 687L107 23Q105 13 98 7T80 0H36Q26 0 21 6Z" />
<glyph unicode="m" glyph-name="m" horiz-adv-x="889" d="M26 0T21 6T17 23L118 497Q120 507 128 513T146 520H188Q198 520 202 514T205 497L198 463Q232 497 265 513T346 530Q403 530 442 506T495 438Q567 530 672 530Q742 530 785 490T829 374Q829 343 822 312L760
23Q758 13 751 7T733 0H690Q680 0 675 6T671 23L731 303Q738 335 738 362Q738 452 651 452Q601 452 556 417T494 303L434 23Q432 13 425 7T407 0H363Q353 0 348 6T345 23L404 303Q411 334 411 361Q411 409 387 430T324 452Q274 452 229 417T167 304L107 23Q105
13 98 7T80 0H36Q26 0 21 6Z" />
<glyph unicode="n" glyph-name="n" horiz-adv-x="604" d="M26 0T21 6T17 23L118 497Q120 507 128 513T146 520H189Q199 520 204 514T207 497L197 453Q271 530 373 530Q459 530 501 489T544 374Q544 344 536 306L475 23Q473 13 466 7T448 0H402Q392 0 387 6T384
23L442 300Q451 338 451 366Q451 410 428 431T351 452Q281 452 232 412T167 300L109 23Q107 13 100 7T82 0H36Q26 0 21 6Z" />
<glyph unicode="o" glyph-name="o" horiz-adv-x="570" d="M133 -10T82 38T30 168Q30 189 35 217Q40 257 53 303Q79 407 148 468T328 530Q422 530 473 481T524 350Q524 324 520 303Q511 254 501 217Q475 113 406 52T226 -10Q133 -10 82 38ZM295 65T343 105T411
222Q415 238 427 298Q432 326 432 345Q432 399 405 427T324 455Q259 455 211 414T144 298Q133 261 127 222Q123 199 123 175Q123 65 230 65Q295 65 343 105Z" />
<glyph unicode="p" glyph-name="p" horiz-adv-x="593" d="M-15 -190T-20 -184T-23 -167L119 497Q121 507 128 513T146 520H188Q199 520 204 514T207 497L198 453Q233 491 272 510T370 530Q459 530 502 479T546 346Q546 322 541 290Q538 265 528 230Q502 125 438
58T268 -10Q158 -10 118 66L68 -167Q66 -177 59 -183T41 -190H-4Q-15 -190 -20 -184ZM327 68T371 114T436 231Q443 253 448 289Q452 313 452 340Q452 452 351 452Q303 452 265 430T202 371T167 296Q159 265 150 218Q146 194 146 182Q146 133 173 101T259 68Q327
68 371 114Z" />
<glyph unicode="q" glyph-name="q" horiz-adv-x="594" d="M336 -190T331 -184T328 -167L378 66Q343 29 304 10T209 -10Q119 -10 76 40T32 173Q32 202 36 226Q43 265 51 294Q77 398 141 464T310 530Q368 530 406 509T462 453L472 497Q474 507 481 513T500 520H542Q552
520 557 514T560 497L419 -167Q417 -177 409 -183T391 -190H346Q336 -190 331 -184ZM275 68T313 89T376 145T410 218Q421 257 426 296Q430 315 430 337Q430 387 404 419T319 452Q250 452 206 407T141 289Q134 267 129 231Q124 199 124 176Q124 126 147 97T228 68Q275
68 313 89Z" />
<glyph unicode="r" glyph-name="r" horiz-adv-x="378" d="M26 0T21 6T17 23L118 496Q120 506 128 513T146 520H188Q199 520 204 513T207 496L197 452Q245 520 348 520H390Q400 520 405 514T408 497L400 460Q399 450 391 444T373 437H315Q260 437 222 405T172 318L109
23Q107 13 99 7T81 0H36Q26 0 21 6Z" />
<glyph unicode="s" glyph-name="s" horiz-adv-x="508" d="M138 -10T97 10T37 56T18 105Q18 117 26 125T44 133H86Q92 133 95 131T102 122Q121 93 145 78T218 62Q272 62 309 82T354 140Q356 152 356 155Q356 183 326 198T216 233Q146 250 116 278T85 347Q85 357
89 381Q97 419 126 453T204 508T312 530Q374 530 414 510T471 462T484 415Q483 405 476 399T458 392H419Q407 392 402 403Q388 423 379 433T350 450T297 458Q248 458 218 438T179 383Q177 373 177 368Q177 344 204 328T306 295Q383 278 417 248T451 174Q451 160
448 143Q434 77 369 34T202 -10Q138 -10 97 10Z" />
<glyph unicode="t" glyph-name="t" horiz-adv-x="381" d="M144 0T113 27T81 108Q81 137 89 175L146 443H68Q58 443 53 449T49 465L56 497Q58 507 66 513T84 520H162L198 687Q200 697 207 703T225 710H268Q279 710 284 704T287 687L251 520H375Q385 520 390 514T393
497L386 465Q384 455 377 449T359 443H235L179 182Q170 141 170 123Q170 101 182 90T226 79H292Q302 79 306 73T309 56L302 23Q300 13 293 7T275 0H217Q144 0 113 27Z" />
<glyph unicode="u" glyph-name="u" horiz-adv-x="601" d="M129 -10T87 31T45 146Q45 175 53 215L113 497Q115 507 122 513T141 520H187Q197 520 201 514T204 497L146 220Q137 181 137 152Q137 110 160 89T236 68Q304 68 353 109T417 220L476 497Q478 507 486 513T504
520H550Q560 520 565 514T568 497L467 23Q465 13 458 7T440 0H397Q387 0 382 6T378 23L387 68Q349 27 313 9T215 -10Q129 -10 87 31Z" />
<glyph unicode="v" glyph-name="v" horiz-adv-x="550" d="M176 0T170 6T160 25L74 495L73 501Q73 510 79 515T95 520H137Q157 520 161 498L229 105L468 504Q479 520 495 520H545Q553 520 557 516T562 504Q562 497 557 489L274 25Q266 13 257 7T234 0H190Q176 0 170 6Z" />
<glyph unicode="w" glyph-name="w" horiz-adv-x="800" d="M135 0T129 6T121 25L77 496Q76 506 82 513T101 520H140Q160 520 162 504L195 122L393 499Q405 520 424 520H460Q481 520 483 499L524 122L718 504Q720 510 727 515T743 520H790Q807 520 807 505Q807 500
804 492L564 25Q557 12 549 6T527 0H488Q462 0 460 25L417 387L225 25Q211 0 186 0H148Q135 0 129 6Z" />
<glyph unicode="x" glyph-name="x" horiz-adv-x="536" d="M-18 0T-23 6T-28 20Q-28 30 -23 35L205 268L84 488Q81 493 81 499Q81 508 87 514T102 520H147Q163 520 172 504L272 325L449 504Q457 512 463 516T483 520H528Q535 521 541 515T548 500Q548 492 541 485L317
255L438 32Q441 26 441 19Q441 11 436 6T421 0H374Q358 0 349 15L249 196L72 15Q65 8 59 4T39 0H-9Q-18 0 -23 6Z" />
<glyph unicode="y" glyph-name="y" horiz-adv-x="553" d="M53 -190T49 -186T44 -174Q44 -165 49 -157L172 35L74 493Q72 504 77 512T97 520H138Q156 520 160 504L238 135L475 504Q485 520 503 520H553Q560 520 565 516T570 504Q570 498 566 491L137 -174Q125 -190
108 -190H60Q53 -190 49 -186Z" />
<glyph unicode="z" glyph-name="z" horiz-adv-x="504" d="M-10 0T-15 6T-19 23L-11 56Q-8 70 0 78L362 443H104Q94 443 89 449T85 466L92 497Q94 507 101 513T120 520H473Q483 520 488 514T491 497L484 462Q483 452 472 441L113 77H400Q410 77 414 71T417 54L411
23Q409 13 402 7T384 0H0Q-10 0 -15 6Z" />
<glyph unicode="{" glyph-name="braceleft" horiz-adv-x="366" d="M149 -159T114 -122T78 -9Q78 43 96 131Q103 168 103 185Q103 210 94 227T68 258L62 262Q44 273 44 289Q44 296 45 300L49 318Q52 331 59 339T82 356L91 361Q124 380 143 408T172 487Q193 586
223 648T302 743T428 776H433Q443 776 447 770T450 754L444 720Q442 710 435 704T418 698H413Q365 697 337 674T291 603T254 468Q229 351 146 309Q193 279 193 208Q193 182 187 150Q165 45 165 4Q165 -39 184 -59T247 -80H252Q262 -81 266 -87T269 -102L261 -137Q260
-147 252 -153T235 -159H230Q149 -159 114 -122Z" />
<glyph unicode="|" glyph-name="bar" horiz-adv-x="232" d="M-20 -208T-25 -202T-28 -185L197 873Q199 883 207 889T225 896H262Q272 896 276 890T279 873L55 -185Q53 -195 45 -201T27 -208H-10Q-20 -208 -25 -202Z" />
<glyph unicode="}" glyph-name="braceright" horiz-adv-x="366" d="M250 776T285 739T321 626Q321 574 303 486Q296 449 296 433Q296 407 305 390T331 359L338 355Q356 342 356 326Q356 321 355 318L350 299Q348 287 341 279T318 261L309 257Q276 238 257 210T227
130Q206 31 177 -31T98 -126T-29 -159H-35Q-44 -159 -49 -153T-52 -137L-44 -102Q-42 -93 -35 -87T-18 -80H-13Q35 -79 63 -56T109 14T145 150Q159 209 185 248T254 308Q206 338 206 408Q206 438 213 467Q234 567 234 613Q234 656 215 676T152 697L148 698Q138
698 134 704T131 720L137 754Q139 764 147 770T164 776H169Q250 776 285 739Z" />
<glyph unicode="~" glyph-name="asciitilde" horiz-adv-x="561" d="M85 242T81 247T79 262L87 299Q92 321 129 340T210 359Q240 359 262 354T313 339Q343 330 359 326T400 322Q421 322 437 328T466 342T483 353Q495 357 499 357Q515 357 512 337L504 300Q499 278
462 260T382 241Q354 241 333 245T283 259Q256 268 236 272T191 277Q170 277 154 271T126 257T109 247Q99 242 93 242Q85 242 81 247Z" />
<glyph unicode="&#xa0;" glyph-name="uni00A0" horiz-adv-x="251" />
<glyph unicode="&#xa1;" glyph-name="exclamdown" horiz-adv-x="235" d="M382 519T387 513T390 496L378 435Q376 425 368 419T350 412H289Q279 412 274 418T270 435L283 496Q285 506 293 512T311 519H372Q382 519 387 513ZM338 355T343 349T346 332L242 -158Q240
-168 233 -174T215 -181H171Q161 -181 156 -175T153 -158L257 332Q259 342 267 348T285 355H328Q338 355 343 349Z" />
<glyph unicode="&#xa2;" glyph-name="cent" d="M166 -100T161 -94T158 -77L173 -4Q108 9 71 53T34 168Q34 190 39 220Q51 280 56 300Q80 398 138 457T286 527L299 587Q306 610 327 610H366Q376 610 381 604T384 587L371 527Q448 517 485 473T523 376Q523 366 522
361Q521 351 515 345T499 338H451Q440 338 435 344T430 364Q430 453 326 453Q262 453 215 414T147 295L132 225Q127 193 127 174Q127 67 233 67Q340 67 386 157Q393 169 398 173T414 178H462Q471 178 476 172T478 155Q469 119 442 84T367 23T256 -8L243 -77Q241
-87 234 -93T215 -100H176Q166 -100 161 -94Z" />
<glyph unicode="&#xa3;" glyph-name="sterling" horiz-adv-x="675" d="M366 -6T337 9T275 55Q247 79 229 89T186 100Q147 100 126 80T89 19Q85 11 80 6T64 0H20Q11 0 7 5T5 19Q21 85 61 124T155 176Q159 202 160 231T163 270L165 304H88Q78 304 74 310T71 327L77
359Q79 369 87 375T105 382H169Q174 420 182 454Q207 568 282 639T474 711Q571 711 622 663T674 537Q674 517 669 490Q667 481 660 475T644 468H595Q586 468 580 474T574 490Q577 629 457 629Q388 629 341 581T278 453Q269 416 266 382H461Q471 382 475 376T478
359L472 327Q470 317 462 311T444 304H257Q256 295 254 254T244 174Q271 169 290 156T334 121Q359 98 377 87T422 76Q462 76 484 97T524 161Q527 167 533 172T547 178H589Q598 178 602 173T604 159Q587 81 533 38T411 -6Q366 -6 337 9Z" />
<glyph unicode="&#xa4;" glyph-name="currency" horiz-adv-x="587" d="M46 102Q42 107 42 114Q42 127 52 134L105 177Q87 210 87 254Q87 273 92 300Q107 370 158 424L123 466Q119 471 119 478Q119 490 130 499L157 521Q165 528 175 528Q184 528 190 521L223 477Q287
517 355 517Q422 517 470 477L522 521Q530 528 540 528Q550 528 554 521L572 499Q576 494 576 487Q576 475 565 466L513 424Q530 388 530 345Q530 325 525 300Q512 232 460 177L494 134Q498 129 498 122Q498 109 488 102L460 79Q451 72 443 72Q435 72 428 79L394
123Q334 83 262 83Q193 83 147 123L95 79Q86 72 78 72Q70 72 63 79L46 102ZM317 160T353 179T415 230T449 300Q452 315 452 330Q452 378 421 409T339 440Q281 440 232 400T169 300Q166 285 166 270Q166 222 197 191T279 160Q317 160 353 179Z" />
<glyph unicode="&#xa5;" glyph-name="yen" horiz-adv-x="613" d="M641 700T645 696T650 683Q650 676 643 667L366 315H490Q500 315 504 309T507 292L501 259Q499 249 491 243T473 236H330L319 186H463Q473 186 478 180T481 164L473 131Q472 121 464 115T446 108H302L284
23Q282 13 275 7T257 0H208Q198 0 193 6T189 23L207 108H65Q55 108 50 114T47 131L54 164Q56 174 64 180T82 186H224L235 236H92Q82 236 77 242T74 259L81 292Q83 302 91 308T109 315H233L105 667Q102 675 102 680Q103 689 110 694T127 700H173Q189 700 196 683L308
380L549 683Q561 700 579 700H633Q641 700 645 696Z" />
<glyph unicode="&#xa6;" glyph-name="brokenbar" horiz-adv-x="239" d="M129 475T124 481T121 498L187 806Q189 816 197 822T215 829H251Q261 829 266 823T269 806L203 498Q201 488 193 482T175 475H139Q129 475 124 481ZM29 0T24 6T20 23L86 331Q88 341 96 347T114
354H150Q160 354 165 348T168 331L102 23Q100 13 93 7T75 0H39Q29 0 24 6Z" />
<glyph unicode="&#xa7;" glyph-name="section" horiz-adv-x="567" d="M138 -140T98 -122T40 -75T21 -16Q21 -7 22 -2Q23 7 30 12T48 18H90Q99 18 103 14T111 -1Q116 -30 137 -48T215 -67Q266 -67 298 -41T340 25Q343 37 343 47Q343 74 319 90T228 126Q138 154
98 189T58 279Q58 297 63 324Q78 398 167 456Q156 476 156 501Q156 518 161 541Q170 585 200 623T280 686T391 710Q452 710 492 692T551 645T570 587Q570 578 569 573Q568 564 560 558T543 552H500Q491 552 487 556T480 571Q474 601 453 619T376 637Q325 637 293
611T251 545Q248 533 248 523Q248 496 272 480T362 444Q453 416 493 381T533 291Q533 273 528 246Q513 173 424 115Q434 95 434 68Q434 48 430 29Q421 -15 390 -53T310 -116T199 -140Q138 -140 98 -122ZM407 184T426 207T445 269Q445 300 417 323T316 370Q261 386
224 407Q183 385 165 362T146 300Q146 269 174 246T275 200Q328 183 366 163Q407 184 426 207Z" />
<glyph unicode="&#xa8;" glyph-name="dieresis" horiz-adv-x="309" d="M39 622T34 628T31 644L43 696Q45 706 52 712T69 719H122Q132 719 137 713T140 696L129 644Q127 634 119 628T101 622H49Q39 622 34 628ZM206 622T201 628T198 644L210 696Q211 706 219 712T237
719H289Q299 719 304 713T308 696L296 644Q294 634 287 628T269 622H216Q206 622 201 628Z" />
<glyph unicode="&#xa9;" glyph-name="copyright" horiz-adv-x="826" d="M269 -10T201 28T95 132T56 280Q56 312 64 352Q85 450 149 532T304 662T494 710Q579 710 647 672T753 568T792 420Q792 388 784 348Q763 250 699 168T544 38T354 -10Q269 -10 201 28ZM436
52T513 92T645 201T717 350Q724 381 724 415Q724 481 696 534T615 617T493 648Q413 648 336 608T203 499T131 350Q124 319 124 285Q124 219 153 166T234 83T356 52Q436 52 513 92ZM324 158T287 194T249 287Q249 301 252 316Q258 353 267 386Q284 455 334 499T458
544Q506 544 539 529T588 491T604 443L603 433Q602 423 595 417T577 411H547Q529 411 527 431Q527 478 456 478Q407 478 379 450T340 385Q329 337 326 317Q324 299 324 289Q324 224 391 224Q429 224 455 236T493 271Q504 291 521 291H551Q561 291 566 285T569 269Q563
242 541 217T481 175T389 158Q324 158 287 194Z" />
<glyph unicode="&#xaa;" glyph-name="ordfeminine" horiz-adv-x="362" d="M141 429T117 448T93 497Q93 538 129 565T229 601L290 610Q292 616 292 624Q292 645 260 645Q229 645 207 632Q193 625 185 625H156Q136 625 139 642Q145 663 176 684T261 705Q310 705
336 684T362 624Q362 611 359 597L328 455Q326 446 320 440T304 434H275Q265 434 261 440T258 455L260 463Q247 448 227 439T181 429Q141 429 117 448ZM224 487T248 507T278 557L231 550Q168 540 165 509Q163 499 169 493T189 487Q224 487 248 507Z" />
<glyph unicode="&#xab;" glyph-name="guillemotleft" horiz-adv-x="608" d="M236 85T223 96L71 283Q59 297 61 317L67 341Q72 360 90 375L323 562Q336 573 348 573Q357 573 361 567T363 552L356 515Q352 502 347 495T329 477L145 329L266 181Q273 173 275 168T278
154Q278 147 277 143L268 106Q266 97 260 91T244 85Q236 85 223 96ZM492 85T479 96L326 283Q315 297 317 317L322 341Q327 359 346 375L579 562Q592 573 604 573Q613 573 617 567T619 552L611 515Q608 502 603 495T585 477L401 329L522 181Q529 173 531 168T534
154Q534 147 533 143L524 106Q522 97 516 91T500 85Q492 85 479 96Z" />
<glyph unicode="&#xac;" glyph-name="logicalnot" horiz-adv-x="581" d="M409 151T404 157T401 173L423 273H90Q80 273 75 279T71 296L78 327Q80 337 88 343T106 350H496Q506 350 511 344T514 327L481 173Q480 163 472 157T454 151H419Q409 151 404 157Z" />
<glyph unicode="&#xad;" glyph-name="uni00AD" horiz-adv-x="251" />
<glyph unicode="&#xae;" glyph-name="registered" horiz-adv-x="827" d="M269 -10T202 28T96 132T57 279Q57 312 65 352Q86 450 149 532T304 662T494 710Q580 710 648 672T754 568T793 420Q793 388 785 348Q764 250 701 168T546 38T355 -10Q269 -10 202 28ZM435
52T513 92T647 201T720 350Q727 381 727 413Q727 479 698 532T616 617T493 648Q415 648 337 608T203 499T130 350Q123 319 123 287Q123 220 152 167T234 83T356 52Q435 52 513 92ZM260 168T256 174T253 190L321 512Q323 522 330 528T348 534H468Q521 534 558 511T596
440Q596 433 594 417Q586 378 562 351T502 312L545 204Q546 202 546 195Q546 185 539 177T519 168H496Q486 168 481 172T471 187L430 299H349L326 190Q324 180 317 174T299 168H270Q260 168 256 174ZM441 364Q478 364 497 378T520 417Q522 429 522 433Q522 470
465 470H385L362 364H441Z" />
<glyph unicode="&#xaf;" glyph-name="overscore" horiz-adv-x="303" d="M39 618T34 624T31 640L37 669Q39 679 46 685T64 691H285Q295 691 299 685T302 669L296 640Q295 630 287 624T269 618H49Q39 618 34 624Z" />
<glyph unicode="&#xb0;" glyph-name="degree" horiz-adv-x="386" d="M167 428T133 458T99 537Q99 547 103 569Q116 630 164 670T274 710Q331 710 364 680T398 600Q398 586 395 569Q381 509 333 469T223 428Q167 428 133 458ZM266 493T296 521T327 590Q327 615
313 630T270 645Q237 645 209 624T173 569Q170 557 170 546Q170 521 184 507T228 493Q266 493 296 521Z" />
<glyph unicode="&#xb1;" glyph-name="plusminus" d="M233 192T228 198T225 215L258 370H105Q95 370 90 376T86 393L93 423Q95 433 103 439T121 445H274L306 596Q308 606 316 612T334 619H368Q378 619 383 613T386 596L353 445H506Q516 445 521 439T524 423L518
393Q516 383 509 377T491 370H338L304 215Q302 205 295 199T277 192H243Q233 192 228 198ZM27 0T22 6T18 23L24 53Q26 63 34 69T52 76H418Q428 76 433 70T436 53L429 23Q427 13 420 7T402 0H37Q27 0 22 6Z" />
<glyph unicode="&#xb2;" glyph-name="uni00B2" horiz-adv-x="341" d="M68 350T64 356T61 372L65 393Q67 401 73 408T96 427L147 459Q235 512 265 537T303 593Q304 597 304 604Q304 622 291 632T257 643Q230 643 216 633T196 615T188 604Q180 593 174 590T160 586H133Q114
586 119 605Q126 630 149 653T204 691T271 705Q320 705 348 680T376 616Q376 608 374 594Q367 559 346 533T289 480T185 414H328Q338 414 342 408T345 392L342 372Q340 362 333 356T315 350H78Q68 350 64 356Z" />
<glyph unicode="&#xb3;" glyph-name="uni00B3" horiz-adv-x="341" d="M130 345T100 366T69 419L70 428Q71 437 78 442T91 447H116Q129 447 139 435Q141 433 146 425T165 413T203 408Q238 408 261 423T284 464Q284 498 227 498H185Q175 498 171 504T169 520L172
539Q174 548 189 561L286 635H152Q142 635 137 641T134 657L139 678Q141 688 148 694T165 700H370Q380 700 385 694T388 678L383 659Q381 648 376 640T360 623L274 558Q316 555 336 535T357 481Q357 419 312 382T190 345Q130 345 100 366Z" />
<glyph unicode="&#xb4;" glyph-name="acute" horiz-adv-x="255" d="M36 595T33 599T31 611Q33 618 39 624L133 714Q144 725 152 728T174 732H239Q246 732 250 728T254 716Q254 706 246 701L110 606Q100 599 93 597T75 595H43Q36 595 33 599Z" />
<glyph unicode="&#xb5;" glyph-name="uni00B5" horiz-adv-x="605" d="M568 520T573 514T576 497L475 23Q473 13 466 7T448 0H405Q395 0 390 6T386 23L395 68Q360 30 321 11T227 -9Q152 -9 110 38L65 -177Q63 -187 55 -193T37 -200H-10Q-20 -200 -25 -194T-28 -177L115
497Q117 507 125 513T143 520H190Q200 520 204 514T207 497L149 220Q144 197 144 180Q144 128 174 98T250 68Q285 68 322 86T387 140T425 220L484 497Q486 507 494 513T512 520H558Q568 520 573 514Z" />
<glyph unicode="&#xb6;" glyph-name="paragraph" horiz-adv-x="528" d="M87 569T120 610T199 676T295 700H512Q522 700 527 694T530 677L370 -77Q368 -87 360 -93T342 -100H307Q297 -100 293 -94T290 -77L439 627H360L211 -77Q209 -87 201 -93T183 -100H148Q138
-100 134 -94T131 -77L219 339Q154 339 114 379T73 482Q73 503 77 520Q87 569 120 610Z" />
<glyph unicode="&#xb7;" glyph-name="middot" horiz-adv-x="326" d="M56 321T75 350T125 397T188 415Q226 415 250 391T274 330Q274 297 255 268T206 220T143 202Q104 202 80 226T56 288Q56 321 75 350Z" />
<glyph unicode="&#xb8;" glyph-name="cedilla" horiz-adv-x="251" d="M83 -220T57 -207T30 -179Q30 -174 36 -169L53 -155Q57 -151 62 -151Q66 -151 74 -157T91 -167T116 -171Q134 -171 147 -161T164 -133Q165 -130 165 -125Q165 -112 156 -105T131 -98Q120 -98
105 -102T84 -107Q76 -107 72 -101L58 -82Q56 -78 56 -76Q56 -71 61 -63T68 -51L119 27H180L122 -56Q136 -48 160 -48Q186 -48 203 -66T220 -114Q220 -128 218 -135Q210 -174 184 -197T116 -220Q83 -220 57 -207Z" />
<glyph unicode="&#xb9;" glyph-name="uni00B9" horiz-adv-x="242" d="M162 350T158 356T155 372L206 612L136 567Q131 563 122 563Q112 563 106 572L97 588Q94 593 94 597Q94 610 108 619L223 693Q234 700 247 700H273Q283 700 288 694T291 678L226 372Q224 362
217 356T199 350H172Q162 350 158 356Z" />
<glyph unicode="&#xba;" glyph-name="ordmasculine" horiz-adv-x="356" d="M159 429T130 452T101 520Q101 528 103 544Q104 558 114 590Q129 647 167 676T259 705Q306 705 335 682T365 613Q365 606 363 590Q362 580 359 567T353 544Q322 429 209 429Q159 429 130
452ZM240 491T257 504T281 545Q289 573 291 589Q292 595 292 605Q292 624 283 633T252 643Q227 643 210 629T185 589Q177 561 175 545Q174 539 174 529Q174 510 183 501T215 491Q240 491 257 504Z" />
<glyph unicode="&#xbb;" glyph-name="guillemotright" horiz-adv-x="608" d="M38 85T34 91T31 106L39 143Q42 156 47 163T65 181L249 329L128 477Q123 484 120 490T116 503Q116 507 118 515L126 552Q128 561 135 567T151 573Q160 573 171 562L324 375Q334 362
334 350Q334 344 333 341L328 317Q323 298 304 283L71 96Q56 85 47 85Q38 85 34 91ZM294 85T290 91T287 106L295 143Q298 156 303 163T321 181L505 329L384 477Q379 484 376 490T372 503Q372 507 374 515L382 552Q384 561 391 567T407 573Q416 573 427 562L579
375Q586 367 588 359T589 341L583 317Q580 299 560 283L327 96Q312 85 303 85Q294 85 290 91Z" />
<glyph unicode="&#xbc;" glyph-name="onequarter" horiz-adv-x="715" d="M192 350T188 356T185 372L236 612L166 567Q161 563 152 563Q142 563 136 572L127 588Q124 593 124 597Q124 610 138 619L253 693Q264 700 277 700H303Q313 700 318 694T321 678L256 372Q254
362 247 356T229 350H202Q192 350 188 356ZM500 0T496 6T493 22L503 70H355Q345 70 341 76T338 92L342 114Q347 130 361 144L537 332Q554 350 570 350H610Q620 350 625 344T628 328L587 135H622Q632 135 636 129T639 113L635 92Q633 82 626 76T608 70H573L563 22Q561
12 554 6T536 0H510Q500 0 496 6ZM430 134H517L544 259L430 134ZM9 0T5 4T0 15Q0 23 8 31L639 681Q650 692 657 696T677 700H710Q719 700 723 696T728 685Q728 676 721 669L90 19Q80 9 72 5T52 0H18Q9 0 5 4Z" />
<glyph unicode="&#xbd;" glyph-name="onehalf" horiz-adv-x="743" d="M192 350T188 356T185 372L236 612L166 567Q161 563 152 563Q142 563 136 572L127 588Q124 593 124 597Q124 610 138 619L253 693Q264 700 277 700H303Q313 700 318 694T321 678L256 372Q254
362 247 356T229 350H202Q192 350 188 356ZM382 0T378 6T375 22L379 43Q381 51 387 58T410 77L461 109Q549 162 579 187T617 243Q618 247 618 254Q618 272 605 282T571 293Q544 293 530 283T510 265T502 254Q494 243 488 240T474 236H447Q428 236 433 255Q440 280
463 303T518 341T585 355Q634 355 662 330T690 266Q690 258 688 244Q681 209 660 183T603 130T499 64H642Q652 64 656 58T659 42L656 22Q654 12 647 6T629 0H392Q382 0 378 6ZM9 0T5 4T0 15Q0 23 8 31L639 681Q650 692 657 696T677 700H710Q719 700 723 696T728
685Q728 676 721 669L90 19Q80 9 72 5T52 0H18Q9 0 5 4Z" />
<glyph unicode="&#xbe;" glyph-name="threequarters" horiz-adv-x="754" d="M148 345T118 366T87 419L88 428Q89 437 96 442T109 447H134Q147 447 157 435Q159 433 164 425T183 413T221 408Q256 408 279 423T302 464Q302 498 245 498H203Q193 498 189 504T187
520L190 539Q192 548 207 561L304 635H170Q160 635 155 641T152 657L157 678Q159 688 166 694T183 700H388Q398 700 403 694T406 678L401 659Q399 648 394 640T378 623L292 558Q334 555 354 535T375 481Q375 419 330 382T208 345Q148 345 118 366ZM540 0T536 6T533
22L543 70H395Q385 70 381 76T378 92L382 114Q387 130 401 144L577 332Q594 350 610 350H650Q660 350 665 344T668 328L627 135H662Q672 135 676 129T679 113L675 92Q673 82 666 76T648 70H613L603 22Q601 12 594 6T576 0H550Q540 0 536 6ZM470 134H557L584 259L470
134ZM49 0T45 4T40 15Q40 23 48 31L679 681Q690 692 697 696T717 700H750Q759 700 763 696T768 685Q768 676 761 669L130 19Q120 9 112 5T92 0H58Q49 0 45 4Z" />
<glyph unicode="&#xbf;" glyph-name="questiondown" horiz-adv-x="522" d="M511 520T515 514T518 497L506 439Q504 429 496 422T478 415H416Q406 415 401 422T397 439L410 497Q412 507 420 513T439 520H501Q511 520 515 514ZM467 359T471 353T475 337L466 296Q453
243 420 204T328 117Q285 81 262 57T230 4Q225 -10 225 -27Q225 -65 256 -87T334 -109Q454 -109 503 13Q512 35 533 35H578Q587 35 592 29T595 13Q582 -42 542 -88T443 -162T315 -190Q221 -190 175 -150T128 -48Q128 -26 134 -3Q147 44 177 79T260 160Q307 200
332 228T368 293L379 335Q387 359 408 359H458Q467 359 471 353Z" />
<glyph unicode="&#xc0;" glyph-name="Agrave" horiz-adv-x="671" d="M-30 0T-35 5T-40 19Q-40 25 -37 31L349 678Q363 700 385 700H457Q481 700 484 678L595 31Q597 16 592 8T575 0H528Q517 0 511 5T503 22L476 161H146L58 17Q48 0 30 0H-21Q-30 0 -35 5ZM192
244H466L405 603L192 244ZM406 750T400 752T386 761L294 853Q289 858 289 865Q289 874 295 880T312 887H381Q395 887 400 884T414 869L469 779Q471 773 471 769Q471 761 466 756T452 750H417Q406 750 400 752Z" />
<glyph unicode="&#xc1;" glyph-name="Aacute" horiz-adv-x="671" d="M-30 0T-35 5T-40 19Q-40 25 -37 31L349 678Q363 700 385 700H457Q481 700 484 678L595 31Q597 16 592 8T575 0H528Q517 0 511 5T503 22L476 161H146L58 17Q48 0 30 0H-21Q-30 0 -35 5ZM192
244H466L405 603L192 244ZM387 750T387 763Q389 772 395 777L490 869Q501 879 509 883T531 887H602Q610 887 614 883T618 872Q616 860 609 856L473 761Q463 754 456 752T438 750H401Q387 750 387 763Z" />
<glyph unicode="&#xc2;" glyph-name="Acircumflex" horiz-adv-x="671" d="M-30 0T-35 5T-40 19Q-40 25 -37 31L349 678Q363 700 385 700H457Q481 700 484 678L595 31Q597 16 592 8T575 0H528Q517 0 511 5T503 22L476 161H146L58 17Q48 0 30 0H-21Q-30 0 -35 5ZM192
244H466L405 603L192 244ZM273 750T273 761Q273 769 282 776L398 872Q410 882 417 884T434 887H464Q474 887 480 885T494 872L569 777Q575 770 573 762Q572 757 568 754T557 750H530Q519 750 509 757L441 814L349 757Q347 756 341 753T326 750H284Q273 750 273
761Z" />
<glyph unicode="&#xc3;" glyph-name="Atilde" horiz-adv-x="671" d="M-30 0T-35 5T-40 19Q-40 25 -37 31L349 678Q363 700 385 700H457Q481 700 484 678L595 31Q597 16 592 8T575 0H528Q517 0 511 5T503 22L476 161H146L58 17Q48 0 30 0H-21Q-30 0 -35 5ZM192
244H466L405 603L192 244ZM468 745T455 750T426 765Q418 770 409 774T391 779Q379 779 372 775T357 762Q347 750 337 750H306Q299 750 296 755T293 766Q298 799 326 828T391 858Q409 858 422 853T451 837Q459 832 468 828T486 823Q499 823 506 827T520 840Q529
853 540 853H571Q578 853 581 849T584 837Q581 817 567 796T532 760T486 745Q468 745 455 750Z" />
<glyph unicode="&#xc4;" glyph-name="Adieresis" horiz-adv-x="671" d="M-30 0T-35 5T-40 19Q-40 25 -37 31L349 678Q363 700 385 700H457Q481 700 484 678L595 31Q597 16 592 8T575 0H528Q517 0 511 5T503 22L476 161H146L58 17Q48 0 30 0H-21Q-30 0 -35 5ZM192
244H466L405 603L192 244ZM291 750T287 756T284 772L295 825Q297 835 304 841T322 848H375Q385 848 390 842T393 825L382 772Q380 762 372 756T354 750H301Q291 750 287 756ZM489 750T484 756T481 772L492 825Q494 835 502 841T520 848H572Q582 848 587 842T590
825L579 772Q577 762 569 756T551 750H499Q489 750 484 756Z" />
<glyph unicode="&#xc5;" glyph-name="Aring" horiz-adv-x="671" d="M-30 0T-35 5T-40 19Q-40 25 -37 31L349 678Q363 700 385 700H457Q481 700 484 678L595 31Q597 16 592 8T575 0H528Q517 0 511 5T503 22L476 161H146L58 17Q48 0 30 0H-21Q-30 0 -35 5ZM192 244H466L405
603L192 244ZM397 740T377 757T356 803Q356 808 358 818Q366 852 393 874T456 897Q487 897 507 880T527 834Q527 830 525 818Q518 784 490 762T428 740Q397 740 377 757ZM449 788T461 799T473 827Q473 848 450 848Q434 848 423 837T411 810Q411 800 416 794T432
788Q449 788 461 799Z" />
<glyph unicode="&#xc6;" glyph-name="AE" horiz-adv-x="955" d="M-33 0T-33 18Q-33 27 -28 35L355 679Q367 700 388 700H958Q969 700 974 694T977 676L970 640Q967 630 960 624T942 618H606L558 395H871Q882 395 887 389T890 371L883 337Q881 327 874 321T855
314H541L491 83H835Q846 83 851 76T854 59L846 23Q844 13 837 7T818 0H405Q395 0 390 6T386 23L416 161H152L64 17Q54 0 36 0H-13Q-33 0 -33 18ZM197 244H433L512 612H415L197 244Z" />
<glyph unicode="&#xc7;" glyph-name="Ccedilla" horiz-adv-x="665" d="M208 -220T185 -207T162 -180Q162 -174 168 -169L187 -155Q192 -151 197 -151Q201 -151 209 -157T225 -167T249 -171Q268 -171 283 -158T299 -125Q299 -112 290 -105T265 -98Q253 -98 238
-102T217 -107Q210 -107 205 -101L192 -83Q190 -79 190 -77Q190 -71 195 -63T202 -53L232 -6Q146 6 104 57T62 191Q62 224 68 261Q83 353 106 439Q138 565 222 637T440 710Q519 710 571 685T649 617T674 524Q674 505 671 487Q670 478 663 473T646 467H595Q585 467
581 472T575 489Q574 566 536 597T422 628Q249 628 200 434Q179 343 165 266Q159 235 159 208Q159 73 305 73Q380 73 431 104T516 211Q521 223 528 228T545 233H596Q605 233 610 228T613 213Q598 155 556 104T445 22T287 -10L255 -56Q269 -48 294 -48Q322 -48 338
-65T355 -109Q355 -155 324 -187T240 -220Q208 -220 185 -207Z" />
<glyph unicode="&#xc8;" glyph-name="Egrave" horiz-adv-x="604" d="M38 0T33 6T30 23L168 676Q170 687 178 693T196 700H607Q618 700 622 694T625 676L618 640Q616 630 608 624T590 618H249L201 395H520Q530 395 535 389T538 371L531 337Q529 327 522 321T503
314H184L135 83H484Q494 83 499 77T502 59L495 23Q493 13 485 7T467 0H48Q38 0 33 6ZM399 750T393 752T379 761L287 853Q282 858 282 865Q282 874 288 880T305 887H374Q388 887 393 884T407 869L462 779Q464 773 464 769Q464 761 459 756T445 750H410Q399 750 393
752Z" />
<glyph unicode="&#xc9;" glyph-name="Eacute" horiz-adv-x="604" d="M38 0T33 6T30 23L168 676Q170 687 178 693T196 700H607Q618 700 622 694T625 676L618 640Q616 630 608 624T590 618H249L201 395H520Q530 395 535 389T538 371L531 337Q529 327 522 321T503
314H184L135 83H484Q494 83 499 77T502 59L495 23Q493 13 485 7T467 0H48Q38 0 33 6ZM364 750T364 763Q366 772 372 777L467 869Q478 879 486 883T508 887H579Q587 887 591 883T595 872Q593 860 586 856L450 761Q440 754 433 752T415 750H378Q364 750 364 763Z"
/>
<glyph unicode="&#xca;" glyph-name="Ecircumflex" horiz-adv-x="604" d="M38 0T33 6T30 23L168 676Q170 687 178 693T196 700H607Q618 700 622 694T625 676L618 640Q616 630 608 624T590 618H249L201 395H520Q530 395 535 389T538 371L531 337Q529 327 522 321T503
314H184L135 83H484Q494 83 499 77T502 59L495 23Q493 13 485 7T467 0H48Q38 0 33 6ZM253 750T253 761Q253 769 262 776L378 872Q390 882 397 884T414 887H444Q454 887 460 885T474 872L549 777Q555 770 553 762Q552 757 548 754T537 750H510Q499 750 489 757L421
814L329 757Q327 756 321 753T306 750H264Q253 750 253 761Z" />
<glyph unicode="&#xcb;" glyph-name="Edieresis" horiz-adv-x="604" d="M38 0T33 6T30 23L168 676Q170 687 178 693T196 700H607Q618 700 622 694T625 676L618 640Q616 630 608 624T590 618H249L201 395H520Q530 395 535 389T538 371L531 337Q529 327 522 321T503
314H184L135 83H484Q494 83 499 77T502 59L495 23Q493 13 485 7T467 0H48Q38 0 33 6ZM272 750T268 756T265 772L276 825Q278 835 285 841T303 848H356Q366 848 371 842T374 825L363 772Q361 762 353 756T335 750H282Q272 750 268 756ZM470 750T465 756T462 772L473
825Q475 835 483 841T501 848H553Q563 848 568 842T571 825L560 772Q558 762 550 756T532 750H480Q470 750 465 756Z" />
<glyph unicode="&#xcc;" glyph-name="Igrave" horiz-adv-x="271" d="M37 0T32 6T29 23L169 677Q170 687 178 693T196 700H246Q256 700 261 694T265 677L125 23Q123 13 116 7T98 0H47Q37 0 32 6ZM216 750T210 752T196 761L104 853Q99 858 99 865Q99 874 105 880T122
887H191Q205 887 210 884T224 869L279 779Q281 773 281 769Q281 761 276 756T262 750H227Q216 750 210 752Z" />
<glyph unicode="&#xcd;" glyph-name="Iacute" horiz-adv-x="271" d="M37 0T32 6T29 23L169 677Q170 687 178 693T196 700H246Q256 700 261 694T265 677L125 23Q123 13 116 7T98 0H47Q37 0 32 6ZM190 750T190 763Q192 772 198 777L293 869Q304 879 312 883T334
887H405Q413 887 417 883T421 872Q419 860 412 856L276 761Q266 754 259 752T241 750H204Q190 750 190 763Z" />
<glyph unicode="&#xce;" glyph-name="Icircumflex" horiz-adv-x="271" d="M37 0T32 6T29 23L169 677Q170 687 178 693T196 700H246Q256 700 261 694T265 677L125 23Q123 13 116 7T98 0H47Q37 0 32 6ZM78 750T78 761Q78 769 87 776L203 872Q215 882 222 884T239
887H269Q279 887 285 885T299 872L374 777Q380 770 378 762Q377 757 373 754T362 750H335Q324 750 314 757L246 814L154 757Q152 756 146 753T131 750H89Q78 750 78 761Z" />
<glyph unicode="&#xcf;" glyph-name="Idieresis" horiz-adv-x="271" d="M37 0T32 6T29 23L169 677Q170 687 178 693T196 700H246Q256 700 261 694T265 677L125 23Q123 13 116 7T98 0H47Q37 0 32 6ZM96 750T92 756T89 772L100 825Q102 835 109 841T127 848H180Q190
848 195 842T198 825L187 772Q185 762 177 756T159 750H106Q96 750 92 756ZM294 750T289 756T286 772L297 825Q299 835 307 841T325 848H377Q387 848 392 842T395 825L384 772Q382 762 374 756T356 750H304Q294 750 289 756Z" />
<glyph unicode="&#xd0;" glyph-name="Eth" horiz-adv-x="697" d="M48 0T43 6T39 23L101 314H42Q32 314 28 320T25 337L31 367Q32 377 40 383T59 390H118L178 676Q180 687 187 693T206 700H420Q537 700 602 647T668 495Q668 461 661 429Q645 345 628 272Q605 176
567 117T464 29T300 0H58Q48 0 43 6ZM300 83Q370 83 415 102T489 163T534 276Q547 333 566 425Q573 459 573 489Q573 555 534 586T409 618H260L212 390H346Q356 390 361 384T364 367L358 337Q357 327 349 321T330 314H195L146 83H300Z" />
<glyph unicode="&#xd1;" glyph-name="Ntilde" horiz-adv-x="696" d="M38 0T33 6T30 23L168 676Q170 687 177 693T195 700H238Q255 700 260 686L488 164L597 676Q599 687 606 693T625 700H670Q681 700 685 694T688 676L550 24Q548 13 541 7T523 0H480Q464 0 458
14L230 531L122 23Q120 13 112 7T94 0H48Q38 0 33 6ZM475 745T462 750T433 765Q425 770 416 774T398 779Q386 779 379 775T364 762Q354 750 344 750H313Q306 750 303 755T300 766Q305 799 333 828T398 858Q416 858 429 853T458 837Q466 832 475 828T493 823Q506
823 513 827T527 840Q536 853 547 853H578Q585 853 588 849T591 837Q588 817 574 796T539 760T493 745Q475 745 462 750Z" />
<glyph unicode="&#xd2;" glyph-name="Ograve" horiz-adv-x="675" d="M174 -10T111 42T48 197Q48 223 55 265Q74 368 91 434Q124 571 207 640T417 710Q524 710 586 657T649 501Q649 470 643 434Q627 346 606 265Q573 127 490 59T281 -10Q174 -10 111 42ZM368 73T427
121T512 270Q533 359 546 430Q552 466 552 495Q552 564 517 596T413 628Q329 628 270 580T186 430Q169 364 152 270Q145 228 145 204Q145 136 180 105T285 73Q368 73 427 121ZM410 750T404 752T390 761L298 853Q293 858 293 865Q293 874 299 880T316 887H385Q399
887 404 884T418 869L473 779Q475 773 475 769Q475 761 470 756T456 750H421Q410 750 404 752Z" />
<glyph unicode="&#xd3;" glyph-name="Oacute" horiz-adv-x="675" d="M174 -10T111 42T48 197Q48 223 55 265Q74 368 91 434Q124 571 207 640T417 710Q524 710 586 657T649 501Q649 470 643 434Q627 346 606 265Q573 127 490 59T281 -10Q174 -10 111 42ZM368 73T427
121T512 270Q533 359 546 430Q552 466 552 495Q552 564 517 596T413 628Q329 628 270 580T186 430Q169 364 152 270Q145 228 145 204Q145 136 180 105T285 73Q368 73 427 121ZM378 750T378 763Q380 772 386 777L481 869Q492 879 500 883T522 887H593Q601 887 605
883T609 872Q607 860 600 856L464 761Q454 754 447 752T429 750H392Q378 750 378 763Z" />
<glyph unicode="&#xd4;" glyph-name="Ocircumflex" horiz-adv-x="675" d="M174 -10T111 42T48 197Q48 223 55 265Q74 368 91 434Q124 571 207 640T417 710Q524 710 586 657T649 501Q649 470 643 434Q627 346 606 265Q573 127 490 59T281 -10Q174 -10 111 42ZM368
73T427 121T512 270Q533 359 546 430Q552 466 552 495Q552 564 517 596T413 628Q329 628 270 580T186 430Q169 364 152 270Q145 228 145 204Q145 136 180 105T285 73Q368 73 427 121ZM277 750T277 761Q277 769 286 776L402 872Q414 882 421 884T438 887H468Q478
887 484 885T498 872L573 777Q579 770 577 762Q576 757 572 754T561 750H534Q523 750 513 757L445 814L353 757Q351 756 345 753T330 750H288Q277 750 277 761Z" />
<glyph unicode="&#xd5;" glyph-name="Otilde" horiz-adv-x="675" d="M174 -10T111 42T48 197Q48 223 55 265Q74 368 91 434Q124 571 207 640T417 710Q524 710 586 657T649 501Q649 470 643 434Q627 346 606 265Q573 127 490 59T281 -10Q174 -10 111 42ZM368 73T427
121T512 270Q533 359 546 430Q552 466 552 495Q552 564 517 596T413 628Q329 628 270 580T186 430Q169 364 152 270Q145 228 145 204Q145 136 180 105T285 73Q368 73 427 121ZM476 745T463 750T434 765Q426 770 417 774T399 779Q387 779 380 775T365 762Q355 750
345 750H314Q307 750 304 755T301 766Q306 799 334 828T399 858Q417 858 430 853T459 837Q467 832 476 828T494 823Q507 823 514 827T528 840Q537 853 548 853H579Q586 853 589 849T592 837Q589 817 575 796T540 760T494 745Q476 745 463 750Z" />
<glyph unicode="&#xd6;" glyph-name="Odieresis" horiz-adv-x="675" d="M174 -10T111 42T48 197Q48 223 55 265Q74 368 91 434Q124 571 207 640T417 710Q524 710 586 657T649 501Q649 470 643 434Q627 346 606 265Q573 127 490 59T281 -10Q174 -10 111 42ZM368
73T427 121T512 270Q533 359 546 430Q552 466 552 495Q552 564 517 596T413 628Q329 628 270 580T186 430Q169 364 152 270Q145 228 145 204Q145 136 180 105T285 73Q368 73 427 121ZM294 750T290 756T287 772L298 825Q300 835 307 841T325 848H378Q388 848 393
842T396 825L385 772Q383 762 375 756T357 750H304Q294 750 290 756ZM492 750T487 756T484 772L495 825Q497 835 505 841T523 848H575Q585 848 590 842T593 825L582 772Q580 762 572 756T554 750H502Q492 750 487 756Z" />
<glyph unicode="&#xd7;" glyph-name="multiply" horiz-adv-x="553" d="M35 158Q31 162 31 169Q31 181 42 190L222 336L110 484Q105 489 105 496Q105 507 116 516L146 540Q154 547 164 547Q174 547 178 540L291 390L474 542Q482 549 492 549Q501 549 507 542L533
509Q537 505 537 497Q537 486 526 477L344 328L459 181Q463 177 463 170Q463 158 452 149L423 126Q414 119 406 119Q398 119 391 126L275 272L93 124Q86 117 76 117Q67 117 61 124L35 158Z" />
<glyph unicode="&#xd8;" glyph-name="Oslash" horiz-adv-x="698" d="M76 -10T76 186Q76 202 77 211L36 197Q29 194 23 194Q14 194 10 198T8 212L15 246Q17 258 23 263T42 273L87 288Q101 367 118 434Q151 570 239 640T453 710Q560 710 618 657T674 500L715 514Q723
517 729 517Q747 517 744 499L737 465Q734 454 729 449T709 439L668 424Q657 362 634 265Q601 127 516 59T300 -10Q76 -10 76 186ZM577 465Q578 473 578 487Q578 558 540 593T435 628Q355 628 297 579T213 430Q197 364 190 326L577 465ZM398 73T456 121T539 270Q555
334 565 387L175 247Q173 223 173 213Q173 142 211 108T317 73Q398 73 456 121Z" />
<glyph unicode="&#xd9;" glyph-name="Ugrave" horiz-adv-x="700" d="M183 -10T125 38T66 183Q66 224 76 270L162 676Q164 687 172 693T190 700H238Q249 700 253 694T256 676L169 268Q160 226 160 192Q160 132 193 103T297 74Q385 74 441 122T518 268L605 676Q607
687 615 693T634 700H682Q692 700 696 694T699 676L613 270Q582 125 505 58T293 -10Q183 -10 125 38ZM418 750T412 752T398 761L306 853Q301 858 301 865Q301 874 307 880T324 887H393Q407 887 412 884T426 869L481 779Q483 773 483 769Q483 761 478 756T464 750H429Q418
750 412 752Z" />
<glyph unicode="&#xda;" glyph-name="Uacute" horiz-adv-x="700" d="M183 -10T125 38T66 183Q66 224 76 270L162 676Q164 687 172 693T190 700H238Q249 700 253 694T256 676L169 268Q160 226 160 192Q160 132 193 103T297 74Q385 74 441 122T518 268L605 676Q607
687 615 693T634 700H682Q692 700 696 694T699 676L613 270Q582 125 505 58T293 -10Q183 -10 125 38ZM393 750T393 763Q395 772 401 777L496 869Q507 879 515 883T537 887H608Q616 887 620 883T624 872Q622 860 615 856L479 761Q469 754 462 752T444 750H407Q393
750 393 763Z" />
<glyph unicode="&#xdb;" glyph-name="Ucircumflex" horiz-adv-x="700" d="M183 -10T125 38T66 183Q66 224 76 270L162 676Q164 687 172 693T190 700H238Q249 700 253 694T256 676L169 268Q160 226 160 192Q160 132 193 103T297 74Q385 74 441 122T518 268L605
676Q607 687 615 693T634 700H682Q692 700 696 694T699 676L613 270Q582 125 505 58T293 -10Q183 -10 125 38ZM283 750T283 761Q283 769 292 776L408 872Q420 882 427 884T444 887H474Q484 887 490 885T504 872L579 777Q585 770 583 762Q582 757 578 754T567 750H540Q529
750 519 757L451 814L359 757Q357 756 351 753T336 750H294Q283 750 283 761Z" />
<glyph unicode="&#xdc;" glyph-name="Udieresis" horiz-adv-x="700" d="M183 -10T125 38T66 183Q66 224 76 270L162 676Q164 687 172 693T190 700H238Q249 700 253 694T256 676L169 268Q160 226 160 192Q160 132 193 103T297 74Q385 74 441 122T518 268L605 676Q607
687 615 693T634 700H682Q692 700 696 694T699 676L613 270Q582 125 505 58T293 -10Q183 -10 125 38ZM302 750T298 756T295 772L306 825Q308 835 315 841T333 848H386Q396 848 401 842T404 825L393 772Q391 762 383 756T365 750H312Q302 750 298 756ZM500 750T495
756T492 772L503 825Q505 835 513 841T531 848H583Q593 848 598 842T601 825L590 772Q588 762 580 756T562 750H510Q500 750 495 756Z" />
<glyph unicode="&#xdd;" glyph-name="Yacute" horiz-adv-x="642" d="M224 0T219 6T215 23L265 260L111 667Q109 673 109 676Q109 685 116 692T134 700H178Q194 700 201 683L326 358L589 683Q603 700 619 700H678Q695 700 695 686Q695 677 687 667L360 260L309
23Q307 13 299 7T281 0H234Q224 0 219 6ZM352 750T352 763Q354 772 360 777L455 869Q466 879 474 883T496 887H567Q575 887 579 883T583 872Q581 860 574 856L438 761Q428 754 421 752T403 750H366Q352 750 352 763Z" />
<glyph unicode="&#xde;" glyph-name="Thorn" horiz-adv-x="645" d="M38 0T33 6T30 23L169 677Q170 687 178 693T196 700H246Q256 700 261 694T265 677L241 564H413Q512 564 567 524T623 405Q623 380 617 351Q595 246 524 193T339 139H150L125 23Q123 13 116 7T98
0H48Q38 0 33 6ZM337 220Q409 220 458 254T522 351Q528 378 528 399Q528 441 500 462T403 483H223L167 220H337Z" />
<glyph unicode="&#xdf;" glyph-name="germandbls" horiz-adv-x="587" d="M40 0T35 6T32 23L132 494Q152 588 218 649T395 710Q488 710 532 669T577 565Q577 547 572 524Q560 468 528 431T456 377Q540 346 540 255Q540 230 534 204Q523 155 489 108T398 31T264
0H195Q185 0 180 6T177 23L183 54Q185 64 193 70T212 76H267Q337 76 383 113T442 206Q445 223 445 237Q445 282 414 309T321 337H266Q256 337 251 343T248 360L254 388Q256 398 263 404T282 411H328Q395 412 434 440T484 522Q487 534 487 546Q487 586 458 610T379
634Q320 634 278 598T221 491L122 23Q120 13 112 7T94 0H50Q40 0 35 6Z" />
<glyph unicode="&#xe0;" glyph-name="agrave" horiz-adv-x="584" d="M115 -10T74 40T32 171Q32 197 37 230Q40 255 50 290Q77 396 138 463T307 530Q367 530 400 511T454 456L463 497Q465 507 472 513T490 520H533Q543 520 548 514T551 497L451 23Q449 13 442 7T424
0H381Q371 0 366 6T362 23L372 66Q335 28 299 9T204 -10Q115 -10 74 40ZM293 68T340 115T403 225Q416 278 420 302Q424 328 424 340Q424 389 398 420T315 452Q248 452 206 407T142 289Q133 258 130 231Q125 198 125 174Q125 68 222 68Q293 68 340 115ZM325 595T318
597T305 606L213 698Q208 703 208 710Q208 719 214 725T229 732H298Q311 732 317 729T331 714L385 626Q390 618 388 610Q386 604 381 600T369 595H336Q325 595 318 597Z" />
<glyph unicode="&#xe1;" glyph-name="aacute" horiz-adv-x="584" d="M115 -10T74 40T32 171Q32 197 37 230Q40 255 50 290Q77 396 138 463T307 530Q367 530 400 511T454 456L463 497Q465 507 472 513T490 520H533Q543 520 548 514T551 497L451 23Q449 13 442 7T424
0H381Q371 0 366 6T362 23L372 66Q335 28 299 9T204 -10Q115 -10 74 40ZM293 68T340 115T403 225Q416 278 420 302Q424 328 424 340Q424 389 398 420T315 452Q248 452 206 407T142 289Q133 258 130 231Q125 198 125 174Q125 68 222 68Q293 68 340 115ZM304 595T301
599T299 611Q301 618 307 624L401 714Q412 725 420 728T442 732H507Q514 732 518 728T522 716Q522 706 514 701L378 606Q368 599 361 597T343 595H311Q304 595 301 599Z" />
<glyph unicode="&#xe2;" glyph-name="acircumflex" horiz-adv-x="584" d="M115 -10T74 40T32 171Q32 197 37 230Q40 255 50 290Q77 396 138 463T307 530Q367 530 400 511T454 456L463 497Q465 507 472 513T490 520H533Q543 520 548 514T551 497L451 23Q449 13
442 7T424 0H381Q371 0 366 6T362 23L372 66Q335 28 299 9T204 -10Q115 -10 74 40ZM293 68T340 115T403 225Q416 278 420 302Q424 328 424 340Q424 389 398 420T315 452Q248 452 206 407T142 289Q133 258 130 231Q125 198 125 174Q125 68 222 68Q293 68 340 115ZM190
595T190 606Q190 614 199 621L315 717Q327 727 334 729T351 732H380Q389 732 395 730T409 717L484 622Q490 615 488 607Q487 602 483 599T472 595H446Q435 595 425 602L357 659L265 602Q263 601 257 598T242 595H201Q190 595 190 606Z" />
<glyph unicode="&#xe3;" glyph-name="atilde" horiz-adv-x="584" d="M115 -10T74 40T32 171Q32 197 37 230Q40 255 50 290Q77 396 138 463T307 530Q367 530 400 511T454 456L463 497Q465 507 472 513T490 520H533Q543 520 548 514T551 497L451 23Q449 13 442 7T424
0H381Q371 0 366 6T362 23L372 66Q335 28 299 9T204 -10Q115 -10 74 40ZM293 68T340 115T403 225Q416 278 420 302Q424 328 424 340Q424 389 398 420T315 452Q248 452 206 407T142 289Q133 258 130 231Q125 198 125 174Q125 68 222 68Q293 68 340 115ZM389 590T378
595T351 610Q343 615 335 619T317 624Q309 624 302 620T289 609Q282 602 277 599T265 595H234Q227 595 224 600T221 611Q226 644 253 671T318 698Q336 698 347 693T374 678Q376 677 382 673T395 666T408 664Q417 664 422 668T435 680Q440 685 446 689T459 694H489Q497
694 500 690T503 678Q498 645 471 618T407 590Q389 590 378 595Z" />
<glyph unicode="&#xe4;" glyph-name="adieresis" horiz-adv-x="584" d="M115 -10T74 40T32 171Q32 197 37 230Q40 255 50 290Q77 396 138 463T307 530Q367 530 400 511T454 456L463 497Q465 507 472 513T490 520H533Q543 520 548 514T551 497L451 23Q449 13 442
7T424 0H381Q371 0 366 6T362 23L372 66Q335 28 299 9T204 -10Q115 -10 74 40ZM293 68T340 115T403 225Q416 278 420 302Q424 328 424 340Q424 389 398 420T315 452Q248 452 206 407T142 289Q133 258 130 231Q125 198 125 174Q125 68 222 68Q293 68 340 115ZM227
622T222 628T219 644L231 696Q233 706 240 712T257 719H310Q320 719 325 713T328 696L317 644Q315 634 307 628T289 622H237Q227 622 222 628ZM394 622T389 628T386 644L398 696Q399 706 407 712T425 719H477Q487 719 492 713T496 696L484 644Q482 634 475 628T457
622H404Q394 622 389 628Z" />
<glyph unicode="&#xe5;" glyph-name="aring" horiz-adv-x="584" d="M115 -10T74 40T32 171Q32 197 37 230Q40 255 50 290Q77 396 138 463T307 530Q367 530 400 511T454 456L463 497Q465 507 472 513T490 520H533Q543 520 548 514T551 497L451 23Q449 13 442 7T424
0H381Q371 0 366 6T362 23L372 66Q335 28 299 9T204 -10Q115 -10 74 40ZM293 68T340 115T403 225Q416 278 420 302Q424 328 424 340Q424 389 398 420T315 452Q248 452 206 407T142 289Q133 258 130 231Q125 198 125 174Q125 68 222 68Q293 68 340 115ZM316 590T296
607T275 653Q275 658 277 668Q285 702 312 724T375 747Q406 747 426 730T446 684Q446 680 444 668Q437 634 409 612T347 590Q316 590 296 607ZM368 638T380 649T392 677Q392 698 369 698Q353 698 342 687T330 660Q330 650 335 644T351 638Q368 638 380 649Z" />
<glyph unicode="&#xe6;" glyph-name="ae" horiz-adv-x="890" d="M101 -10T59 24T17 112Q17 126 20 141Q34 208 97 251T257 307L411 328L416 355Q420 377 420 385Q420 458 320 458Q274 458 241 440T190 396Q181 379 166 379H127Q118 379 113 385T109 401Q114 424
142 454T221 507T336 530Q404 530 442 509T493 451Q528 488 575 509T681 530Q779 530 820 480T861 352Q861 317 852 270L848 252Q846 242 838 236T819 229H481L480 220Q475 192 475 174Q475 118 505 91T580 63Q616 63 651 77T713 120Q724 131 730 134T747 137H789Q798
137 802 132T806 117Q801 97 769 67T684 13T565 -10Q497 -10 456 17T398 92Q315 -10 173 -10Q101 -10 59 24ZM766 297L767 301Q773 328 773 350Q773 400 746 429T666 458Q611 458 563 418T497 301L496 297H766ZM270 63T321 106T390 231L396 259L275 242Q193 230
151 202T108 132Q108 99 136 81T204 63Q270 63 321 106Z" />
<glyph unicode="&#xe7;" glyph-name="ccedilla" horiz-adv-x="549" d="M128 225Q123 193 123 174Q123 67 229 67Q336 67 382 157Q389 169 394 173T410 178H458Q467 178 472 172T474 155Q463 117 433 80T350 16T225 -10L193 -55Q206 -48 231 -48Q257 -48 274 -66T291
-114Q291 -128 289 -135Q281 -174 255 -197T187 -220Q154 -220 128 -207T101 -179Q101 -174 107 -169L124 -155Q128 -151 133 -151Q137 -151 145 -157T163 -167T188 -171Q207 -171 222 -158T237 -126Q237 -113 228 -106T203 -98Q191 -98 176 -102T155 -107Q147
-107 143 -101L129 -82Q127 -78 127 -76Q127 -71 132 -63T139 -51L169 -5Q104 9 67 54T30 169Q30 190 35 220Q47 280 52 300Q79 410 149 470T326 530Q394 530 437 507T499 449T519 376Q519 366 518 361Q517 351 511 345T495 338H447Q436 338 431 344T426 364Q426
453 322 453Q258 453 211 414T143 295L128 225Z" />
<glyph unicode="&#xe8;" glyph-name="egrave" d="M141 -10T94 38T46 174Q46 202 50 227Q55 257 64 294Q94 402 168 466T345 530Q435 530 482 482T530 348Q530 312 521 270L517 252Q515 242 507 236T488 229H142L140 220Q137 202 137 184Q137 132 165 98T245 63Q292
63 326 81T378 120Q389 132 394 134T412 137H457Q466 137 471 132T474 117Q468 95 434 65T347 12T230 -10Q141 -10 94 38ZM435 297L436 300Q441 325 441 344Q441 396 412 427T330 458Q265 458 219 414T157 300V297H435ZM324 595T317 597T304 606L212 698Q207 703
207 710Q207 719 213 725T228 732H297Q310 732 316 729T330 714L384 626Q389 618 387 610Q385 604 380 600T368 595H335Q324 595 317 597Z" />
<glyph unicode="&#xe9;" glyph-name="eacute" d="M141 -10T94 38T46 174Q46 202 50 227Q55 257 64 294Q94 402 168 466T345 530Q435 530 482 482T530 348Q530 312 521 270L517 252Q515 242 507 236T488 229H142L140 220Q137 202 137 184Q137 132 165 98T245 63Q292
63 326 81T378 120Q389 132 394 134T412 137H457Q466 137 471 132T474 117Q468 95 434 65T347 12T230 -10Q141 -10 94 38ZM435 297L436 300Q441 325 441 344Q441 396 412 427T330 458Q265 458 219 414T157 300V297H435ZM304 595T301 599T299 611Q301 618 307 624L401
714Q412 725 420 728T442 732H507Q514 732 518 728T522 716Q522 706 514 701L378 606Q368 599 361 597T343 595H311Q304 595 301 599Z" />
<glyph unicode="&#xea;" glyph-name="ecircumflex" d="M141 -10T94 38T46 174Q46 202 50 227Q55 257 64 294Q94 402 168 466T345 530Q435 530 482 482T530 348Q530 312 521 270L517 252Q515 242 507 236T488 229H142L140 220Q137 202 137 184Q137 132 165 98T245
63Q292 63 326 81T378 120Q389 132 394 134T412 137H457Q466 137 471 132T474 117Q468 95 434 65T347 12T230 -10Q141 -10 94 38ZM435 297L436 300Q441 325 441 344Q441 396 412 427T330 458Q265 458 219 414T157 300V297H435ZM185 595T185 606Q185 614 194 621L310
717Q322 727 329 729T346 732H375Q384 732 390 730T404 717L479 622Q485 615 483 607Q482 602 478 599T467 595H441Q430 595 420 602L352 659L260 602Q258 601 252 598T237 595H196Q185 595 185 606Z" />
<glyph unicode="&#xeb;" glyph-name="edieresis" d="M141 -10T94 38T46 174Q46 202 50 227Q55 257 64 294Q94 402 168 466T345 530Q435 530 482 482T530 348Q530 312 521 270L517 252Q515 242 507 236T488 229H142L140 220Q137 202 137 184Q137 132 165 98T245
63Q292 63 326 81T378 120Q389 132 394 134T412 137H457Q466 137 471 132T474 117Q468 95 434 65T347 12T230 -10Q141 -10 94 38ZM435 297L436 300Q441 325 441 344Q441 396 412 427T330 458Q265 458 219 414T157 300V297H435ZM228 622T223 628T220 644L232 696Q234
706 241 712T258 719H311Q321 719 326 713T329 696L318 644Q316 634 308 628T290 622H238Q228 622 223 628ZM395 622T390 628T387 644L399 696Q400 706 408 712T426 719H478Q488 719 493 713T497 696L485 644Q483 634 476 628T458 622H405Q395 622 390 628Z" />
<glyph unicode="&#xec;" glyph-name="igrave" horiz-adv-x="241" d="M26 0T21 6T17 23L118 497Q120 507 128 513T146 520H190Q200 520 205 514T208 497L107 23Q105 13 98 7T80 0H36Q26 0 21 6ZM164 595T158 597T144 606L52 698Q47 703 47 710Q47 719 53 725T68
732H137Q150 732 156 729T170 714L224 626Q229 618 227 610Q225 604 220 600T208 595H175Q164 595 158 597Z" />
<glyph unicode="&#xed;" glyph-name="iacute" horiz-adv-x="241" d="M26 0T21 6T17 23L118 497Q120 507 128 513T146 520H190Q200 520 205 514T208 497L107 23Q105 13 98 7T80 0H36Q26 0 21 6ZM149 595T146 599T144 611Q146 618 152 624L246 714Q257 725 265 728T287
732H352Q359 732 363 728T367 716Q367 706 359 701L223 606Q213 599 206 597T188 595H156Q149 595 146 599Z" />
<glyph unicode="&#xee;" glyph-name="icircumflex" horiz-adv-x="241" d="M26 0T21 6T17 23L118 497Q120 507 128 513T146 520H190Q200 520 205 514T208 497L107 23Q105 13 98 7T80 0H36Q26 0 21 6ZM31 595T31 606Q31 614 40 621L156 717Q168 727 175 729T192
732H221Q230 732 236 730T250 717L325 622Q331 615 329 607Q328 602 324 599T313 595H287Q276 595 266 602L198 659L106 602Q104 601 98 598T83 595H42Q31 595 31 606Z" />
<glyph unicode="&#xef;" glyph-name="idieresis" horiz-adv-x="241" d="M26 0T21 6T17 23L118 497Q120 507 128 513T146 520H190Q200 520 205 514T208 497L107 23Q105 13 98 7T80 0H36Q26 0 21 6ZM69 622T64 628T61 644L73 696Q75 706 82 712T99 719H152Q162 719
167 713T170 696L159 644Q157 634 149 628T131 622H79Q69 622 64 628ZM236 622T231 628T228 644L240 696Q241 706 249 712T267 719H319Q329 719 334 713T338 696L326 644Q324 634 317 628T299 622H246Q236 622 231 628Z" />
<glyph unicode="&#xf0;" glyph-name="eth" horiz-adv-x="565" d="M138 -10T90 37T42 165Q42 199 49 231Q72 339 147 404T331 470Q397 470 437 438Q428 499 401 548L293 510Q284 507 280 507Q271 507 267 511T265 525L269 546Q271 557 277 562T296 572L366 597Q340
627 308 658Q294 671 296 680Q298 689 305 694T321 700H369Q392 700 405 687Q437 653 455 629L556 664Q563 667 569 667Q578 667 582 663T584 649L580 628Q578 617 572 612T553 602L489 579Q531 503 531 399Q531 327 514 241L511 228Q487 120 413 55T229 -10Q138
-10 90 37ZM311 65T356 109T418 224L421 236Q426 263 426 282Q426 334 399 364T316 395Q248 395 203 351T143 236L139 222Q135 202 135 179Q135 127 162 96T245 65Q311 65 356 109Z" />
<glyph unicode="&#xf1;" glyph-name="ntilde" horiz-adv-x="604" d="M26 0T21 6T17 23L118 497Q120 507 128 513T146 520H189Q199 520 204 514T207 497L197 453Q271 530 373 530Q459 530 501 489T544 374Q544 344 536 306L475 23Q473 13 466 7T448 0H402Q392 0
387 6T384 23L442 300Q451 338 451 366Q451 410 428 431T351 452Q281 452 232 412T167 300L109 23Q107 13 100 7T82 0H36Q26 0 21 6ZM399 590T388 595T361 610Q353 615 345 619T327 624Q319 624 312 620T299 609Q292 602 287 599T275 595H244Q237 595 234 600T231
611Q236 644 263 671T328 698Q346 698 357 693T384 678Q386 677 392 673T405 666T418 664Q427 664 432 668T445 680Q450 685 456 689T469 694H499Q507 694 510 690T513 678Q508 645 481 618T417 590Q399 590 388 595Z" />
<glyph unicode="&#xf2;" glyph-name="ograve" horiz-adv-x="570" d="M133 -10T82 38T30 168Q30 189 35 217Q40 257 53 303Q79 407 148 468T328 530Q422 530 473 481T524 350Q524 324 520 303Q511 254 501 217Q475 113 406 52T226 -10Q133 -10 82 38ZM295 65T343
105T411 222Q415 238 427 298Q432 326 432 345Q432 399 405 427T324 455Q259 455 211 414T144 298Q133 261 127 222Q123 199 123 175Q123 65 230 65Q295 65 343 105ZM332 595T325 597T312 606L220 698Q215 703 215 710Q215 719 221 725T236 732H305Q318 732 324
729T338 714L392 626Q397 618 395 610Q393 604 388 600T376 595H343Q332 595 325 597Z" />
<glyph unicode="&#xf3;" glyph-name="oacute" horiz-adv-x="570" d="M133 -10T82 38T30 168Q30 189 35 217Q40 257 53 303Q79 407 148 468T328 530Q422 530 473 481T524 350Q524 324 520 303Q511 254 501 217Q475 113 406 52T226 -10Q133 -10 82 38ZM295 65T343
105T411 222Q415 238 427 298Q432 326 432 345Q432 399 405 427T324 455Q259 455 211 414T144 298Q133 261 127 222Q123 199 123 175Q123 65 230 65Q295 65 343 105ZM310 595T307 599T305 611Q307 618 313 624L407 714Q418 725 426 728T448 732H513Q520 732 524
728T528 716Q528 706 520 701L384 606Q374 599 367 597T349 595H317Q310 595 307 599Z" />
<glyph unicode="&#xf4;" glyph-name="ocircumflex" horiz-adv-x="570" d="M133 -10T82 38T30 168Q30 189 35 217Q40 257 53 303Q79 407 148 468T328 530Q422 530 473 481T524 350Q524 324 520 303Q511 254 501 217Q475 113 406 52T226 -10Q133 -10 82 38ZM295
65T343 105T411 222Q415 238 427 298Q432 326 432 345Q432 399 405 427T324 455Q259 455 211 414T144 298Q133 261 127 222Q123 199 123 175Q123 65 230 65Q295 65 343 105ZM195 595T195 606Q195 614 204 621L320 717Q332 727 339 729T356 732H385Q394 732 400
730T414 717L489 622Q495 615 493 607Q492 602 488 599T477 595H451Q440 595 430 602L362 659L270 602Q268 601 262 598T247 595H206Q195 595 195 606Z" />
<glyph unicode="&#xf5;" glyph-name="otilde" horiz-adv-x="570" d="M133 -10T82 38T30 168Q30 189 35 217Q40 257 53 303Q79 407 148 468T328 530Q422 530 473 481T524 350Q524 324 520 303Q511 254 501 217Q475 113 406 52T226 -10Q133 -10 82 38ZM295 65T343
105T411 222Q415 238 427 298Q432 326 432 345Q432 399 405 427T324 455Q259 455 211 414T144 298Q133 261 127 222Q123 199 123 175Q123 65 230 65Q295 65 343 105ZM386 590T375 595T348 610Q340 615 332 619T314 624Q306 624 299 620T286 609Q279 602 274 599T262
595H231Q224 595 221 600T218 611Q223 644 250 671T315 698Q333 698 344 693T371 678Q373 677 379 673T392 666T405 664Q414 664 419 668T432 680Q437 685 443 689T456 694H486Q494 694 497 690T500 678Q495 645 468 618T404 590Q386 590 375 595Z" />
<glyph unicode="&#xf6;" glyph-name="odieresis" horiz-adv-x="570" d="M133 -10T82 38T30 168Q30 189 35 217Q40 257 53 303Q79 407 148 468T328 530Q422 530 473 481T524 350Q524 324 520 303Q511 254 501 217Q475 113 406 52T226 -10Q133 -10 82 38ZM295 65T343
105T411 222Q415 238 427 298Q432 326 432 345Q432 399 405 427T324 455Q259 455 211 414T144 298Q133 261 127 222Q123 199 123 175Q123 65 230 65Q295 65 343 105ZM234 622T229 628T226 644L238 696Q240 706 247 712T264 719H317Q327 719 332 713T335 696L324
644Q322 634 314 628T296 622H244Q234 622 229 628ZM401 622T396 628T393 644L405 696Q406 706 414 712T432 719H484Q494 719 499 713T503 696L491 644Q489 634 482 628T464 622H411Q401 622 396 628Z" />
<glyph unicode="&#xf7;" glyph-name="divide" horiz-adv-x="553" d="M263 426T258 432T255 449L268 508Q270 519 278 525T296 532H356Q367 532 372 525T375 508L363 449Q361 439 353 433T334 426H273Q263 426 258 432ZM69 263T64 269T61 285L68 316Q70 326 77
332T96 339H476Q486 339 490 333T493 316L487 285Q485 275 477 269T459 263H79Q69 263 64 269ZM188 71T183 77T179 94L192 153Q194 163 202 169T220 176H280Q290 176 295 170T299 153L286 94Q284 84 277 78T259 71H198Q188 71 183 77Z" />
<glyph unicode="&#xf8;" glyph-name="oslash" horiz-adv-x="606" d="M162 -10T117 30T64 137L23 123Q16 120 10 120Q1 120 -3 124T-6 138L0 165Q2 176 8 181T28 192L65 205Q71 249 85 303Q110 400 181 465T367 530Q457 530 502 489T554 380L595 395Q604 398 609
398Q618 398 622 394T624 380L618 352Q616 341 610 336T591 326L554 313Q552 295 546 267T534 217Q509 120 439 55T252 -10Q162 -10 117 30ZM464 348Q464 403 434 429T352 455Q291 455 244 418T177 304Q175 296 172 279T164 240L464 348ZM330 65T376 102T443 218L456
278L154 170Q155 116 186 91T268 65Q330 65 376 102Z" />
<glyph unicode="&#xf9;" glyph-name="ugrave" horiz-adv-x="601" d="M129 -10T87 31T45 146Q45 175 53 215L113 497Q115 507 122 513T141 520H187Q197 520 201 514T204 497L146 220Q137 181 137 152Q137 110 160 89T236 68Q304 68 353 109T417 220L476 497Q478
507 486 513T504 520H550Q560 520 565 514T568 497L467 23Q465 13 458 7T440 0H397Q387 0 382 6T378 23L387 68Q349 27 313 9T215 -10Q129 -10 87 31ZM339 595T332 597T319 606L227 698Q222 703 222 710Q222 719 228 725T243 732H312Q325 732 331 729T345 714L399
626Q404 618 402 610Q400 604 395 600T383 595H350Q339 595 332 597Z" />
<glyph unicode="&#xfa;" glyph-name="uacute" horiz-adv-x="601" d="M129 -10T87 31T45 146Q45 175 53 215L113 497Q115 507 122 513T141 520H187Q197 520 201 514T204 497L146 220Q137 181 137 152Q137 110 160 89T236 68Q304 68 353 109T417 220L476 497Q478
507 486 513T504 520H550Q560 520 565 514T568 497L467 23Q465 13 458 7T440 0H397Q387 0 382 6T378 23L387 68Q349 27 313 9T215 -10Q129 -10 87 31ZM314 595T311 599T309 611Q311 618 317 624L411 714Q422 725 430 728T452 732H517Q524 732 528 728T532 716Q532
706 524 701L388 606Q378 599 371 597T353 595H321Q314 595 311 599Z" />
<glyph unicode="&#xfb;" glyph-name="ucircumflex" horiz-adv-x="601" d="M129 -10T87 31T45 146Q45 175 53 215L113 497Q115 507 122 513T141 520H187Q197 520 201 514T204 497L146 220Q137 181 137 152Q137 110 160 89T236 68Q304 68 353 109T417 220L476 497Q478
507 486 513T504 520H550Q560 520 565 514T568 497L467 23Q465 13 458 7T440 0H397Q387 0 382 6T378 23L387 68Q349 27 313 9T215 -10Q129 -10 87 31ZM193 595T193 606Q193 614 202 621L318 717Q330 727 337 729T354 732H383Q392 732 398 730T412 717L487 622Q493
615 491 607Q490 602 486 599T475 595H449Q438 595 428 602L360 659L268 602Q266 601 260 598T245 595H204Q193 595 193 606Z" />
<glyph unicode="&#xfc;" glyph-name="udieresis" horiz-adv-x="601" d="M129 -10T87 31T45 146Q45 175 53 215L113 497Q115 507 122 513T141 520H187Q197 520 201 514T204 497L146 220Q137 181 137 152Q137 110 160 89T236 68Q304 68 353 109T417 220L476 497Q478
507 486 513T504 520H550Q560 520 565 514T568 497L467 23Q465 13 458 7T440 0H397Q387 0 382 6T378 23L387 68Q349 27 313 9T215 -10Q129 -10 87 31ZM238 622T233 628T230 644L242 696Q244 706 251 712T268 719H321Q331 719 336 713T339 696L328 644Q326 634 318
628T300 622H248Q238 622 233 628ZM405 622T400 628T397 644L409 696Q410 706 418 712T436 719H488Q498 719 503 713T507 696L495 644Q493 634 486 628T468 622H415Q405 622 400 628Z" />
<glyph unicode="&#xfd;" glyph-name="yacute" horiz-adv-x="553" d="M53 -190T49 -186T44 -174Q44 -165 49 -157L172 35L74 493Q72 504 77 512T97 520H138Q156 520 160 504L238 135L475 504Q485 520 503 520H553Q560 520 565 516T570 504Q570 498 566 491L137
-174Q125 -190 108 -190H60Q53 -190 49 -186ZM293 595T290 599T288 611Q290 618 296 624L390 714Q401 725 409 728T431 732H496Q503 732 507 728T511 716Q511 706 503 701L367 606Q357 599 350 597T332 595H300Q293 595 290 599Z" />
<glyph unicode="&#xfe;" glyph-name="thorn" horiz-adv-x="593" d="M-15 -190T-20 -184T-23 -167L160 687Q162 698 169 704T187 710H232Q242 710 247 704T250 687L200 455Q232 490 271 510T370 530Q459 530 502 479T546 346Q546 322 541 290Q538 265 528 230Q502
125 438 58T268 -10Q159 -10 118 66L68 -167Q66 -177 59 -183T41 -190H-4Q-15 -190 -20 -184ZM327 68T371 114T436 231Q443 253 448 289Q452 313 452 340Q452 452 351 452Q303 452 265 430T202 371T167 296Q159 265 150 218Q146 194 146 182Q146 133 173 101T259
68Q327 68 371 114Z" />
<glyph unicode="&#xff;" glyph-name="ydieresis" horiz-adv-x="553" d="M53 -190T49 -186T44 -174Q44 -165 49 -157L172 35L74 493Q72 504 77 512T97 520H138Q156 520 160 504L238 135L475 504Q485 520 503 520H553Q560 520 565 516T570 504Q570 498 566 491L137
-174Q125 -190 108 -190H60Q53 -190 49 -186ZM212 622T207 628T204 644L216 696Q218 706 225 712T242 719H295Q305 719 310 713T313 696L302 644Q300 634 292 628T274 622H222Q212 622 207 628ZM379 622T374 628T371 644L383 696Q384 706 392 712T410 719H462Q472
719 477 713T481 696L469 644Q467 634 460 628T442 622H389Q379 622 374 628Z" />
<glyph unicode="&#x2013;" glyph-name="endash" horiz-adv-x="575" d="M74 260T69 266T66 282L73 318Q76 328 83 334T101 341H491Q501 341 506 335T509 318L502 282Q500 272 492 266T474 260H84Q74 260 69 266Z" />
<glyph unicode="&#x2014;" glyph-name="emdash" horiz-adv-x="765" d="M74 260T69 266T66 282L73 318Q76 328 83 334T101 341H681Q691 341 696 335T699 318L692 282Q690 272 682 266T664 260H84Q74 260 69 266Z" />
<glyph unicode="&#x2018;" glyph-name="quoteleft" horiz-adv-x="238" d="M204 520T180 520H114Q100 520 100 532Q100 537 104 545L189 687Q196 699 203 704T222 710H255Q261 710 264 707T268 698Q268 695 266 689L214 549Q204 520 180 520Z" />
<glyph unicode="&#x2019;" glyph-name="quoteright" horiz-adv-x="231" d="M171 710T193 710H259Q273 710 273 698Q273 694 269 684L185 542Q171 520 152 520H119Q113 520 110 523T106 532Q106 535 108 541L160 681Q171 710 193 710Z" />
<glyph unicode="&#x201a;" glyph-name="quotesinglbase" horiz-adv-x="251" d="M45 116T68 116H133Q148 116 148 104Q148 97 143 90L59 -52Q52 -64 45 -69T26 -75H-7Q-13 -75 -16 -72T-20 -63Q-20 -60 -18 -54L34 87Q45 116 68 116Z" />
<glyph unicode="&#x201c;" glyph-name="quotedblleft" horiz-adv-x="397" d="M100 520T100 532Q100 537 104 545L189 687Q196 699 203 704T222 710H255Q261 710 264 707T268 698Q268 695 266 689L214 549Q204 520 180 520H114Q100 520 100 532ZM259 520T259 532Q259
537 263 545L348 687Q355 699 362 704T381 710H414Q420 710 423 707T427 698Q427 695 425 689L373 549Q363 520 339 520H273Q259 520 259 532Z" />
<glyph unicode="&#x201d;" glyph-name="quotedblright" horiz-adv-x="390" d="M171 710T193 710H259Q273 710 273 698Q273 694 269 684L185 542Q171 520 152 520H119Q113 520 110 523T106 532Q106 535 108 541L160 681Q171 710 193 710ZM330 710T352 710H418Q432
710 432 698Q432 694 428 684L343 542Q336 531 329 526T310 520H278Q270 520 267 526T266 541L319 681Q330 710 352 710Z" />
<glyph unicode="&#x201e;" glyph-name="quotedblbase" horiz-adv-x="409" d="M45 116T68 116H133Q148 116 148 104Q148 97 143 90L59 -52Q52 -64 45 -69T26 -75H-7Q-13 -75 -16 -72T-20 -63Q-20 -60 -18 -54L34 87Q45 116 68 116ZM204 116T226 116H292Q306 116
306 104Q306 98 302 90L218 -52Q211 -64 204 -69T184 -75H152Q146 -75 143 -72T139 -63Q139 -60 141 -54L193 87Q204 116 226 116Z" />
<glyph unicode="&#x2022;" glyph-name="bullet" horiz-adv-x="378" d="M82 320T101 349T151 397T214 415Q252 415 276 391T300 330Q300 297 281 268T232 220T168 202Q130 202 106 226T82 287Q82 320 101 349Z" />
<glyph unicode="&#x2039;" glyph-name="guilsinglleft" horiz-adv-x="352" d="M236 85T223 96L71 283Q59 297 61 317L67 341Q72 360 90 375L323 562Q336 573 348 573Q357 573 361 567T363 552L356 515Q352 502 347 495T329 477L145 329L266 181Q273 173 275 168T278
154Q278 147 277 143L268 106Q266 97 260 91T244 85Q236 85 223 96Z" />
<glyph unicode="&#x203a;" glyph-name="guilsinglright" horiz-adv-x="352" d="M38 85T34 91T31 106L39 143Q42 156 47 163T65 181L249 329L128 477Q123 484 120 490T116 503Q116 507 118 515L126 552Q128 561 135 567T151 573Q160 573 171 562L324 375Q334 362
334 350Q334 344 333 341L328 317Q323 298 304 283L71 96Q56 85 47 85Q38 85 34 91Z" />
</font>
</defs>
</svg>
